+ ShareSpark.net »  :::: Hollywood Zone » TV Shows
|- Game.of.Thrones.S06E04.720p.HDTV.430MB.MkvCage


100% Recharge Offer

Game.of.Thrones.S06E04.720p.HDTV.430MB.MkvCage

0 Members and 1 Guest are viewing this topic.

May 16, 2016, 09:20:17 AM
  • *****************
  • Head Admin
  • Legend Member
  • *****
  • Topic Author
  • Thank You: 6878
  • Reputation: 2993
  • Activity:
    86.8%
  • Country: in
  • Posts: 19037
  • Topics: 11071
  • Join Date: Mar 2012
  • The Time Is Now......
Game.of.Thrones.S06E04.720p.HDTV.430MB.MkvCage






Movie Title: Game of Thrones
Creators: David Benioff, D.B. Weiss
Stars: Emilia Clarke, Peter Dinklage, Kit Harington
Release Date: TV Series (2011– )
Genres: Adventure, Drama, Fantasy
Format: MatRoska (Mkv)
File Size: 430MB
Resolution: 1280x720
Runtime: 00:56:38
Language: English
Encoder: MkvCage (MC) Team
Source: 1080i.HDTV.DD5.1.H.264-TOPKEK
















Share this topic on FacebookShare this topic on GoogleShare this topic on MySpaceShare this topic on TwitterShare this topic on Yahoo




May 16, 2016, 09:48:31 AM
Reply #1
  • *****************
  • Head Admin
  • Legend Member
  • *****
  • Topic Author
  • Thank You: 6878
  • Reputation: 2993
  • Activity:
    86.8%
  • Country: in
  • Posts: 19037
  • Topics: 11071
  • Join Date: Mar 2012
  • The Time Is Now......
Game.of.Thrones.S06E04.720p.HDTV.x264-AVS[rartv]

Mediainfo :

Video
ID : 1
Format : AVC
Format/Info : Advanced Video Codec
Format profile : [email protected]
Format settings, CABAC : Yes
Format settings, ReFrames : 5 frames
Codec ID : V_MPEG4/ISO/AVC
Duration : 58mn 34s
Bit rate : 2 445 Kbps
Width : 1 280 pixels
Height : 718 pixels
Display aspect ratio : 16:9
Frame rate mode : Constant
Frame rate : 23.976 (24000/1001) fps
Color space : YUV
Chroma subsampling : 4:2:0
Bit depth : 8 bits
Scan type : Progressive
Bits/(Pixel*Frame) : 0.111
Stream size : 1.00 GiB (85%)
Writing library : x264 core 148 r2692 64f4e24
Encoding settings : cabac=1 / ref=5 / deblock=1:0:0 / analyse=0x3:0x113 / me=umh / subme=8 / psy=1 / psy_rd=1.00:0.00 / mixed_ref=1 / me_range=16 / chroma_me=1 / trellis=1 / 8x8dct=1 / cqm=0 / deadzone=21,11 / fast_pskip=1 / chroma_qp_offset=-2 / threads=22 / lookahead_threads=3 / sliced_threads=0 / nr=0 / decimate=1 / interlaced=0 / bluray_compat=0 / constrained_intra=0 / bframes=3 / b_pyramid=2 / b_adapt=2 / b_bias=0 / direct=3 / weightb=1 / open_gop=0 / weightp=2 / keyint=250 / keyint_min=23 / scenecut=40 / intra_refresh=0 / rc_lookahead=50 / rc=crf / mbtree=1 / crf=18.0 / qcomp=0.60 / qpmin=0 / qpmax=69 / qpstep=4 / ip_ratio=1.40 / aq=1:1.00
Default : Yes
Forced : No
Color range : Limited
Matrix coefficients : BT.709

Audio
ID : 2
Format : AC-3
Format/Info : Audio Coding 3
Mode extension : CM (complete main)
Format settings, Endianness : Big
Codec ID : A_AC3
Duration : 58mn 34s
Bit rate mode : Constant
Bit rate : 384 Kbps
Channel(s) : 6 channels
Channel positions : Front: L C R, Side: L R, LFE
Sampling rate : 48.0 KHz
Frame rate : 31.250 fps (1536 spf)
Compression mode : Lossy
Stream size : 161 MiB (13%)
Default : Yes
Forced : No
















May 16, 2016, 09:50:24 AM
Reply #2
  • *****************
  • Head Admin
  • Legend Member
  • *****
  • Topic Author
  • Thank You: 6878
  • Reputation: 2993
  • Activity:
    86.8%
  • Country: in
  • Posts: 19037
  • Topics: 11071
  • Join Date: Mar 2012
  • The Time Is Now......
Game.of.Thrones.S06E04.480p.HDTV.x265-HEVC-VRITRA


[Name]:Game.of.Thrones.S06E04.480p.HDTV.x265-HEVC-VRITRA.mkv
[Duration]: 58:34
[Resolution]: 854 x480 pixels
[Display aspect ratio]: 16:9
[Frame rate mode]: Constant
[Frame rate]: 23.976 (24000/1001) fps
[Overall Bitrate]: 582 kbps VBR















May 16, 2016, 09:54:48 AM
Reply #3
  • *****************
  • Head Admin
  • Legend Member
  • *****
  • Topic Author
  • Thank You: 6878
  • Reputation: 2993
  • Activity:
    86.8%
  • Country: in
  • Posts: 19037
  • Topics: 11071
  • Join Date: Mar 2012
  • The Time Is Now......
Game Of Thrones S06E04 HDTV XviD-AFG



Description
Duration : 00:58:34
Release size : 405 MB
Video Bitrate : 827 Kbps
Frame rate : 23.976 Fps
MP3 2ch CBR : 128kbps
Video resolution : 640x360 (16:9)
















May 16, 2016, 11:27:10 AM
Reply #4
  • *****************
  • Head Admin
  • Legend Member
  • *****
  • Topic Author
  • Thank You: 6878
  • Reputation: 2993
  • Activity:
    86.8%
  • Country: in
  • Posts: 19037
  • Topics: 11071
  • Join Date: Mar 2012
  • The Time Is Now......
Game.of.Thrones.S06E04.HDTV.XviD-FUM[ettv]


[Format]: AVI
[Duration]: 58mn 38s
[Resolution]: 624 x 352 pixels
[Display aspect ratio]: 16:9
[Frame rate]: 23.976 fps



















May 16, 2016, 11:28:16 AM
Reply #5
  • *****************
  • Head Admin
  • Legend Member
  • *****
  • Topic Author
  • Thank You: 6878
  • Reputation: 2993
  • Activity:
    86.8%
  • Country: in
  • Posts: 19037
  • Topics: 11071
  • Join Date: Mar 2012
  • The Time Is Now......
Game.of.Thrones.S06E04.HDTV.x264-FUM


[Format]: MPEG-4
[Duration]: 58mn 38s
[Resolution]: 720 x 404 pixels
[Display aspect ratio]: 16:9
[Frame rate mode]: Constant
[Frame rate]: 23.976 fps






















May 16, 2016, 01:35:48 PM
Reply #6
  • *****************
  • Head Admin
  • Legend Member
  • *****
  • Topic Author
  • Thank You: 6878
  • Reputation: 2993
  • Activity:
    86.8%
  • Country: in
  • Posts: 19037
  • Topics: 11071
  • Join Date: Mar 2012
  • The Time Is Now......


Game of Thrones S06E04 1080p HDTV HEVC 800MB - MkvCage


Movie Title: Game of Thrones
Creators: David Benioff, D.B. Weiss
Stars: Emilia Clarke, Peter Dinklage, Kit Harington
Release Date: TV Series (2011– )
Genres: Adventure, Drama, Fantasy
Format: MatRoska (Mkv)
File Size: 800MB
Resolution: 1920x1080
Runtime: 00:58:38
Language: English
Subtitles: Download Here
Encoder: MkvCage (MC) Team
Source: 1080p.HDTV.x264-BATV


























Tags:
 

Related Topics

  Subject / Started by Replies Last post
1 Replies
902 Views
Last post May 16, 2016, 03:49:20 PM
by Admin ♥♫
0 Replies
654 Views
Last post May 16, 2016, 09:43:17 AM
by gill3002
0 Replies
1341 Views
Last post May 16, 2016, 10:28:29 AM
by validusvyto
1 Replies
916 Views
Last post May 16, 2016, 01:09:29 PM
by Ńαʌєєи
0 Replies
627 Views
Last post May 16, 2016, 02:02:18 PM
by RexNam




Back to top