+ ShareSpark.net »  :::: Hollywood Zone » TV Shows
|- Arrow S04E20 720p HDTV x265 HEVC [ShAaNiG 200MB + MkvCage 200 MB]


Mastercard 10% Off

Arrow S04E20 720p HDTV x265 HEVC [ShAaNiG 200MB + MkvCage 200 MB]

0 Members and 1 Guest are viewing this topic.

May 05, 2016, 01:38:12 PM
  • Admin
  • Legend Member
  • ****
  • Topic Author
  • Thank You: 2698
  • Reputation: 840
  • Activity:
    0.2%
  • Country: in
  • Posts: 4534
  • Topics: 3161
  • Join Date: Nov 2011
  • ShareSpark Member
  • Expertises:
  • Hollywood Movies
  • Dubbed Movies
  • English PC Videos

 :title:

Arrow S04E20 720p HDTV x265 HEVC [ShAaNiG 200MB]




 :info:

[VIDEO]:........................[ MKV - x265 HEVC
[AUDIO]:........................[ AAC - 2CH
[FILE SIZE]:....................[ 200MB
[RESOLUTION]:...................[ 1280x720
[LANGUAGE]:.....................[ English
[SUBTITLES]:....................[ Click here for Subtitle
[RUNTIME]:......................[ 42m
[ENCODER]:......................[ ShAaNiG.


 :download:










Share this topic on FacebookShare this topic on GoogleShare this topic on MySpaceShare this topic on TwitterShare this topic on Yahoo

« Last Edit: May 05, 2016, 01:43:07 PM by Ńαʌєєи »



May 05, 2016, 01:48:50 PM
Reply #1
  • Admin
  • Legend Member
  • ****
  • Topic Author
  • Thank You: 2698
  • Reputation: 840
  • Activity:
    0.2%
  • Country: in
  • Posts: 4534
  • Topics: 3161
  • Join Date: Nov 2011
  • ShareSpark Member
  • Expertises:
  • Hollywood Movies
  • Dubbed Movies
  • English PC Videos

Arrow S04E20 720p HDTV HEVC 200MB - MkvCage [200 MB]




 :info:

Format                      : Matroska
Format version              : Version 4 / Version 2
File size                   : 201 MiB
Duration                    : 41mn 45s
Overall bit rate            : 674 Kbps
Movie name                  : Arrow.S04E20.720p.HDTV.HEVC.200MB.MkvCage
Encoded date                : UTC 2016-05-05 01:49:40
Writing application         : mkvmerge v7.9.0 ('Birds') 32bit
Writing library             : libebml v1.3.1 + libmatroska v1.4.2
 
Video
ID                          : 1
Format                      : HEVC
Format/Info                 : High Efficiency Video Coding
Format profile              : [email protected]@Main
Codec ID                    : V_MPEGH/ISO/HEVC
Duration                    : 41mn 45s
Bit rate                    : 608 Kbps
Width                       : 1 280 pixels
Height                      : 720 pixels
Display aspect ratio        : 16:9
Frame rate mode             : Constant
Frame rate                  : 23.976 (24000/1001) fps
Color space                 : YUV
Chroma subsampling          : 4:2:0
Bit depth                   : 8 bits
Bits/(Pixel*Frame)          : 0.028
Stream size                 : 182 MiB (90%)
Writing library             : x265 1.9:[Windows][GCC 4.9.0][64 bit] 8bit
Encoding settings           : wpp / ctu=64 / min-cu-size=8 / max-tu-size=32 / tu-intra-depth=1 / tu-inter-depth=1 / me=1 / subme=2 / merange=57 / no-rect / no-amp / max-merge=2 / temporal-mvp / early-skip / rdpenalty=0 / no-tskip / no-tskip-fast / strong-intra-smoothing / no-lossless / no-cu-lossless / no-constrained-intra / fast-intra / open-gop / no-temporal-layers / interlace=0 / keyint=240 / min-keyint=24 / scenecut=40 / rc-lookahead=15 / lookahead-slices=4 / bframes=4 / bframe-bias=0 / b-adapt=0 / ref=2 / limit-refs=3 / no-limit-modes / weightp / no-weightb / aq-mode=1 / qg-size=32 / aq-strength=1.00 / cbqpoffs=0 / crqpoffs=0 / rd=2 / psy-rd=2.00 / rdoq-level=0 / psy-rdoq=0.00 / signhide / deblock / sao / no-sao-non-deblock / b-pyramid / cutree / no-intra-refresh / rc=2 / pass / bitrate=608 / qcomp=0.60 / qpmin=0 / qpmax=51 / qpstep=4 / cplxblur=20.0 / qblur=0.5 / ipratio=1.40 / pbratio=1.30
Default                     : Yes
Forced                      : No
Color range                 : Limited
Color primaries             : BT.709
Transfer characteristics    : BT.709
Matrix coefficients         : BT.709
 
Audio
ID                          : 2
Format                      : AAC
Format/Info                 : Advanced Audio Codec
Format profile              : HE-AAC / LC
Codec ID                    : A_AAC
Duration                    : 41mn 45s
Bit rate                    : 64.0 Kbps
Channel(s)                  : 2 channels
Channel positions           : Front: L R
Sampling rate               : 48.0 KHz / 24.0 KHz
Frame rate                  : 23.438 fps (1024 spf)
Compression mode            : Lossy
Delay relative to video     : -52ms
Stream size                 : 19.1 MiB (9%)
Language                    : English
Default                     : Yes
Forced                      : No


 :ss:




 :download:











Tags:
 

Related Topics

  Subject / Started by Replies Last post
7 Replies
2182 Views
Last post February 25, 2016, 12:32:14 PM
by Ńαʌєєи
2 Replies
1335 Views
Last post April 20, 2016, 01:58:24 PM
by -Ð@Rk.ÐèVi£-
1 Replies
838 Views
Last post May 05, 2016, 01:30:28 PM
by Ńαʌєєи
4 Replies
545 Views
Last post October 06, 2016, 10:08:16 AM
by -Ð@Rk.ÐèVi£-
4 Replies
542 Views
Last post October 15, 2016, 08:13:03 AM
by -Ð@Rk.ÐèVi£-




Back to top