+ ShareSpark.net »  :::: Hollywood Zone » Hollywood Movies (Original Rips) » Small Size Hollywood Movies
|- Paradox.2016.WEBRip.480p.x264.AAC-VYTO [350MB]


100% Recharge Offer

Paradox.2016.WEBRip.480p.x264.AAC-VYTO [350MB]

0 Members and 1 Guest are viewing this topic.

April 23, 2016, 12:19:11 AM
  • Devoted Member
  • **
  • Topic Author
  • Thank You: 52
  • Reputation: 28
  • Activity:
    0%
  • Country: it
  • Posts: 163
  • Topics: 161
  • Join Date: Dec 2015
  • ShareSpark Member



Paradox.2016.WEBRip.480p.x264.AAC-VYTO


Genre: Action, Drama 
IMDb:



Quote
Format                                   : MPEG-4
File size                                : 351 MiB
Duration                                 : 1h 29mn
Overall bit rate                         : 546 Kbps

Video
Format                                   : AVC
Bit rate                                 : 503 Kbps
Width                                    : 720 pixels
Height                                   : 400 pixels
Display aspect ratio                     : 16:9
Frame rate mode                          : Constant
Frame rate                               : 23.976 (24000/1001) fps
Bit depth                                : 8 bits
Stream size                              : 323 MiB (92%)
Writing library                          : x264

Audio
Format                                   : AAC
Bit rate mode                            : Variable
Bit rate                                 : 40.0 Kbps
Channel(s)                               : 2 channels
Channel positions                        : Front: L R
Sampling rate                            : 48.0 KHz
Stream size                              : 25.7 MiB (7%)
Language                                 : English

Subtitle                                 : N/a

Screen Shots: (click on image to see in full size)







-------------------------------------------------------------------------------------


Sample
Code: [Select]
http://www51.zippyshare.com/v/SGwFu1yO/file.html
Download from Uploaded.net
Code: [Select]
http://ul.to/00dxh199
Download from Userscloud.com
Code: [Select]
https://userscloud.com/vyqjowwqwtmg
Download from Uptobox.com
Code: [Select]
http://uptobox.com/dujwtcvbkwaw
Download English Subtitle
Code: [Select]
N/a


Share this topic on FacebookShare this topic on GoogleShare this topic on MySpaceShare this topic on TwitterShare this topic on Yahoo



Thanks given by:


Tags: paradox 2016 web rip 480P x264 AAC 
 

Related Topics

  Subject / Started by Replies Last post
0 Replies
874 Views
Last post March 23, 2016, 09:10:03 AM
by validusvyto
0 Replies
969 Views
Last post April 12, 2016, 08:49:56 AM
by validusvyto
0 Replies
947 Views
Last post April 26, 2016, 01:09:44 PM
by validusvyto
0 Replies
1095 Views
Last post May 04, 2016, 12:50:45 PM
by validusvyto
0 Replies
1188 Views
Last post May 04, 2016, 01:12:05 PM
by validusvyto




Back to top