+ ShareSpark.net »  :::: Bollywood Zone » Indian TV Shows
|- 22nd Annual Star Screen Awards 2016 (Curtian Raiser) - 17th Jan 2016 -720p x265 HEVC {219MB}

DTH Recharges 20% Back

22nd Annual Star Screen Awards 2016 (Curtian Raiser) - 17th Jan 2016 -720p x265 HEVC {219MB}

0 Members and 1 Guest are viewing this topic.

January 18, 2016, 06:15:56 AM
  • Retired
  • Conqueror
  • Legend Member
  • *****
  • Topic Author
  • Thank You: 173
  • Reputation: 379
  • Activity:
    0%
  • Country: us
  • Posts: 1684
  • Topics: 177
  • Join Date: Aug 2015
22nd Annual Star Screen Awards 2016
Curtian Raiser
17th Jan 2016




General

Format                                   : MPEG-4
File size                                : 219 MiB
Duration                                 :38mn 54s
Overall bit rate                       :786 Kbps


Video
ID                                       : 1
Format                                   : HEVC
Format/Info                              : High Efficiency Video Coding
Format profile                           : [email protected]@Main
Codec ID                                 : hvc1
Codec ID/Info                            : High Efficiency Video Coding
Duration                                 : 38mn 54s
Bit rate                                 : 769 Kbps
Maximum bit rate                         : 1 088 Kbps
Width                                    : 1280 pixels
Height                                   : 720 pixels

Display aspect ratio                     : 16:9
Frame rate mode                          : Constant
Frame rate                               : 23.976 fps
Color space                              : YUV
Chroma subsampling                       : 4:2:0
Bit depth                                : 8 bits
Bits/(Pixel*Frame)                       : 0.035
Stream size                              : 214 MiB (98%)
Writing library                          : x265 1.8+31-b6156a08b1def358:[Windows]

ID                                       : 2
Format                                   : AAC
Format/Info                              : Advanced Audio Codec
Format profile                           : LC
Codec ID                                 : 40
Duration                                 : 38mn 54s
Bit rate mode                            : Variable
Bit rate                                 : 14.9 Kbps
Maximum bit rate                         : 17.7 Kbps
Channel(s)                               : 2 channels
Channel positions                        : Front: L R
Sampling rate                            : 8 000 Hz
Compression mode                         : Lossy
Stream size                              : 4.13 MiB (2%)








Audio is not muted in this source

No Watermark











Share this topic on FacebookShare this topic on GoogleShare this topic on MySpaceShare this topic on TwitterShare this topic on Yahoo




Tags:
 

Related Topics

  Subject / Started by Replies Last post
0 Replies
1061 Views
Last post January 24, 2012, 12:22:54 AM
by Admin ♥♫
0 Replies
1109 Views
Last post January 25, 2012, 01:55:53 AM
by Symbi
0 Replies
1175 Views
Last post January 26, 2012, 12:14:55 AM
by Symbi
0 Replies
693 Views
Last post January 11, 2016, 07:54:13 AM
by abcxyz1
0 Replies
690 Views
Last post January 14, 2016, 03:12:20 PM
by ketan khare



Back to top