+ ShareSpark.net »  :::: Bollywood Zone » Indian TV Shows
|- 22nd Annual Star Screen Awards 2016 -10th Jan 2016 -720p x265 HEVC {223MB}


10% SBI and 10% Discount

22nd Annual Star Screen Awards 2016 -10th Jan 2016 -720p x265 HEVC {223MB}

0 Members and 1 Guest are viewing this topic.

January 11, 2016, 07:54:13 AM
  • Retired
  • Conqueror
  • Legend Member
  • *****
  • Topic Author
  • Thank You: 173
  • Reputation: 379
  • Activity:
    0%
  • Country: us
  • Posts: 1684
  • Topics: 177
  • Join Date: Aug 2015
22nd Annual Star Screen Awards 2016
Bollywood Ka Punch
10th Jan 2016




General

Format                                   : MPEG-4
File size                                : 223 MiB
Duration                                 :40mn 15s
Overall bit rate                       :777 Kbps


Video
ID                                       : 1
Format                                   : HEVC
Format/Info                              : High Efficiency Video Coding
Format profile                           : [email protected]@Main
Codec ID                                 : hvc1
Codec ID/Info                            : High Efficiency Video Coding
Duration                                 : 40mn 15s
Bit rate                                 : 760 Kbps
Maximum bit rate                         : 1 168 Kbps
Width                                    : 1280 pixels
Height                                   : 720 pixels

Display aspect ratio                     : 16:9
Frame rate mode                          : Constant
Frame rate                               : 23.976 fps
Color space                              : YUV
Chroma subsampling                       : 4:2:0
Bit depth                                : 8 bits
Bits/(Pixel*Frame)                       : 0.034
Stream size                              : 219 MiB (98%)
Writing library                          : x265 1.8+31-b6156a08b1def358:[Windows]


Audio
ID                                       : 2
Format                                   : AAC
Format/Info                              : Advanced Audio Codec
Format profile                           : LC
Codec ID                                 : 40
Duration                                 : 40mn 14s
Bit rate mode                            : Variable
Bit rate                                 : 15.0 Kbps
Maximum bit rate                         : 17.8 Kbps
Channel(s)                               : 2 channels
Channel positions                        : Front: L R
Sampling rate                            : 8 000 Hz
Compression mode                         : Lossy
Stream size                              : 4.31 MiB (2%)








Audio is not muted in this source

No Watermark











Share this topic on FacebookShare this topic on GoogleShare this topic on MySpaceShare this topic on TwitterShare this topic on Yahoo




Tags:
 

Related Topics

  Subject / Started by Replies Last post
0 Replies
1260 Views
Last post January 25, 2012, 01:55:53 AM
by Symbi
0 Replies
1329 Views
Last post January 26, 2012, 12:14:55 AM
by Symbi
0 Replies
630 Views
Last post February 23, 2015, 08:56:17 PM
by Ńαʌєєи
0 Replies
1366 Views
Last post January 11, 2016, 12:37:37 PM
by mahimapu
0 Replies
711 Views
Last post January 18, 2016, 06:15:56 AM
by abcxyz1




Back to top