+ ShareSpark.net »  :::: Hollywood Zone » TV Shows
|- Game of Thrones Season 05 HDTV x264 - Xclusive [rartv] (300 MB)


Amazon Pantry Offer

Game of Thrones Season 05 HDTV x264 - Xclusive [rartv] (300 MB)

0 Members and 1 Guest are viewing this topic.

April 12, 2015, 11:38:36 AM
  • Admin
  • Legend Member
  • ****
  • Topic Author
  • Thank You: 2701
  • Reputation: 840
  • Activity:
    0%
  • Country: in
  • Posts: 4534
  • Topics: 3161
  • Join Date: Nov 2011
  • ShareSpark Member
  • Expertises:
  • Hollywood Movies
  • Dubbed Movies
  • English PC Videos

This is not Fake  4 episodes has been leaked on torrent. So enjoy The early release EXclusively on ShareSpark



 :title:

Game of Thrones S05E01 HDTV x264 - Xclusive [rartv] (298 MB)




 :imdb:




 :plot:

Nine noble families fight for control of the mythical land of Westeros. Political and sexual intrigue is pervasive. Robert Baratheon, King of Westeros, asks his old friend Eddard, Lord Stark, to serve as Hand of the King, or highest official. Secretly warned that the previous Hand was assassinated, Eddard accepts in order to investigate further. Meanwhile the Queen's family, the Lannisters, may be hatching a plot to take power. Across the sea, the last members of the previous and deposed ruling family, the Targaryens, are also scheming to regain the throne. The friction between the houses Stark, Lannister, Baratheon and Targaryen and with the remaining great houses Greyjoy, Tully, Arryn,Tyrell and Martell leads to full-scale war. All while a very ancient evil awakens in the farthest north. Amidst the war and political confusion, a neglected military order of misfits, the Night's Watch, is all that stands between the realms of men and icy horrors beyond.


 :cast:

Lena Headey  ...  Cersei Lannister (39 episodes, 2011-2015)
Peter Dinklage   ...  Tyrion Lannister (39 episodes, 2011-2015)
Emilia Clarke ...  Daenerys Targaryen (37 episodes, 2011-2015)
Kit Harington   Kit Harington   ...   Jon Snow (36 episodes, 2011-2015)
Maisie Williams  ...  Arya Stark (36 episodes, 2011-2015)
Iain Glen  ...  Jorah Mormont (33 episodes, 2011-2015)
Sophie Turner  ...  Sansa Stark (32 episodes, 2011-2015)
Nikolaj Coster-Waldau  ...  Jaime Lannister (31 episodes, 2011-2015)
John Bradley   John Bradley  ...  Samwell Tarly (29 episodes, 2011-2015)
Alfie Allen  ...  Theon Greyjoy (28 episodes, 2011-2015)
Charles Dance  ...  Tywin Lannister (27 episodes, 2011-2015)
Rory McCann  ...  Sandor 'The Hound' Clegane (27 episodes, 2011-2014)
Jack Gleeson  ...  Joffrey Baratheon (26 episodes, 2011-2014)
Aidan Gillen...  Petyr 'Littlefinger' Baelish (26 episodes, 2011-2015)
Conleth Hill  ...  Lord Varys (26 episodes, 2011-2015)
Michelle Fairley   ...  Catelyn Stark (25 episodes, 2011-2013)
Isaac Hempstead Wright  ...  Bran Stark (25 episodes, 2011-2014)
Jerome Flynn  ...  Bronn (23 episodes, 2011-2015)
Julian Glover  ...  Grand Maester Pycelle (23 episodes, 2011-2015)
Ian McElhinney  ...  Barristan Selmy (23 episodes, 2011-2015)
Stephen Dillane  ...  Stannis Baratheon (23 episodes, 2012-2015)
Gwendoline Christie    ...  Brienne of Tarth (22 episodes, 2012-2015)
Mark Stanley  ...  Grenn (22 episodes, 2011-2014)
Richard Madden  ...  Robb Stark (21 episodes, 2011-2013)
Kristian Nairn  ...  Hodor (21 episodes, 2011-2014)
Liam Cunningham  ...  Davos Seaworth (21 episodes, 2012-2015)
Sibel Kekilli  ...  Shae (20 episodes, 2011-2014)
Ben Crompton     ...  Eddison Tollett (19 episodes, 2012-2015)
Michael McElhatton  ...  Roose Bolton (19 episodes, 2012-2015)
Finn Jones  ...  Loras Tyrell (18 episodes, 2011-2015)
Daniel Portman        ...  Podrick Payne (18 episodes, 2012-2015)
Natalie Dormer  ...  Margaery Tyrell (17 episodes, 2012-2015)
Rose Leslie  ...  Ygritte (17 episodes, 2012-2014)
Joe Dempsie  ...  Gendry (17 episodes, 2011-2013)
Carice van Houten  ...  Melisandre (17 episodes, 2012-2015)
Nathalie Emmanuel  ...  Missandei (16 episodes, 2013-2015)
Kristofer Hivju  ...  Tormund Giantsbane (16 episodes, 2013-2015)



 :info:

Description
Complete name : Game.of.Thrones.S05E01.HDTV.x264-Xclusive.mp4
Format : MPEG-4
Format profile : Base Media
Codec ID : isom
File size : 298 MiB
Duration : 52mn 12s
Overall bit rate : 798 Kbps
Writing application : Lavf53.31.100


Video
ID : 1
Format : AVC
Format/Info : Advanced Video Codec
Format profile : [email protected]
Format settings, CABAC : Yes
Format settings, ReFrames : 5 frames
Codec ID : avc1
Codec ID/Info : Advanced Video Coding
Duration : 52mn 12s
Bit rate : 645 Kbps
Width : 720 pixels
Height : 392 pixels
Display aspect ratio : 1.85:1
Frame rate mode : Variable
Frame rate : 23.976 fps
Minimum frame rate : 23.952 fps
Maximum frame rate : 24.000 fps
Color space : YUV
Chroma subsampling : 4:2:0
Bit depth : 8 bits
Scan type : Progressive
Bits/(Pixel*Frame) : 0.095
Stream size : 241 MiB (81%)

Audio
ID : 2
Format : AAC
Format/Info : Advanced Audio Codec
Format profile : LC
Codec ID : 40
Duration : 52mn 12s
Bit rate mode : Constant
Bit rate : 147 Kbps
Channel(s) : 2 channels
Channel positions : Front: L R
Sampling rate : 48.0 KHz
Compression mode : Lossy
Stream size : 54.9 MiB (18%)

 :ss:









 :download:










Share this topic on FacebookShare this topic on GoogleShare this topic on MySpaceShare this topic on TwitterShare this topic on Yahoo

« Last Edit: April 12, 2015, 11:57:39 AM by ✿❤ Nαvєєи ✿❤ »


Thanks given by:


April 12, 2015, 11:56:02 AM
Reply #1
  • Admin
  • Legend Member
  • ****
  • Topic Author
  • Thank You: 2701
  • Reputation: 840
  • Activity:
    0%
  • Country: in
  • Posts: 4534
  • Topics: 3161
  • Join Date: Nov 2011
  • ShareSpark Member
  • Expertises:
  • Hollywood Movies
  • Dubbed Movies
  • English PC Videos

Game of Thrones S05E02 HDTV x264 - Xclusive [eztv] (370 MB)


 :ss:




 :Download:










« Last Edit: April 12, 2015, 12:43:35 PM by ✿❤ Nαvєєи ✿❤ »

April 12, 2015, 12:12:07 PM
Reply #2
  • Admin
  • Legend Member
  • ****
  • Topic Author
  • Thank You: 2701
  • Reputation: 840
  • Activity:
    0%
  • Country: in
  • Posts: 4534
  • Topics: 3161
  • Join Date: Nov 2011
  • ShareSpark Member
  • Expertises:
  • Hollywood Movies
  • Dubbed Movies
  • English PC Videos

Game of Thrones S05E03 HDTV x264 - Xclusive [rartv] (332 MB)


 :ss:




 :info:

MediaInfo

Video
ID : 1
Format : AVC
Format/Info : Advanced Video Codec
Format profile : [email protected]
Format settings, CABAC : Yes
Format settings, ReFrames : 5 frames
Codec ID : avc1
Codec ID/Info : Advanced Video Coding
Duration : 59mn 53s
Bit rate : 623 Kbps
Width : 720 pixels
Height : 392 pixels
Display aspect ratio : 1.85:1
Frame rate mode : Variable
Frame rate : 23.976 fps
Minimum frame rate : 23.952 fps
Maximum frame rate : 24.000 fps
Color space : YUV
Chroma subsampling : 4:2:0
Bit depth : 8 bits
Scan type : Progressive
Bits/(Pixel*Frame) : 0.092
Stream size : 267 MiB (80%)
Encoded date : UTC 1904-01-01 00:00:00
Tagged date : UTC 1904-01-01 00:00:00

Audio
ID : 2
Format : AAC
Format/Info : Advanced Audio Codec
Format profile : LC
Codec ID : 40
Duration : 59mn 53s
Duration_LastFrame : -21ms
Bit rate mode : Constant
Bit rate : 147 Kbps
Channel(s) : 2 channels
Channel positions : Front: L R
Sampling rate : 48.0 KHz
Compression mode : Lossy
Stream size : 63.0 MiB (19%)
Encoded date : UTC 1904-01-01 00:00:00
Tagged date : UTC 1904-01-01 00:00:00


 :download:










« Last Edit: April 12, 2015, 01:56:30 PM by ✿❤ Nαvєєи ✿❤ »

April 12, 2015, 12:32:29 PM
Reply #3
  • Admin
  • Legend Member
  • ****
  • Topic Author
  • Thank You: 2701
  • Reputation: 840
  • Activity:
    0%
  • Country: in
  • Posts: 4534
  • Topics: 3161
  • Join Date: Nov 2011
  • ShareSpark Member
  • Expertises:
  • Hollywood Movies
  • Dubbed Movies
  • English PC Videos

Game of Thrones S05E04 HDTV x264 - Xclusive [rartv] (341MB)


 :ss:




 :info:

MediaInfo

Video
ID : 1
Format : AVC
Format/Info : Advanced Video Codec
Format profile : [email protected]
Format settings, CABAC : Yes
Format settings, ReFrames : 5 frames
Codec ID : avc1
Codec ID/Info : Advanced Video Coding
Duration : 50mn 22s
Bit rate : 796 Kbps
Width : 720 pixels
Height : 392 pixels
Display aspect ratio : 1.85:1
Frame rate mode : Variable
Frame rate : 23.976 fps
Minimum frame rate : 23.952 fps
Maximum frame rate : 24.000 fps
Color space : YUV
Chroma subsampling : 4:2:0
Bit depth : 8 bits
Scan type : Progressive
Bits/(Pixel*Frame) : 0.118
Stream size : 287 MiB (84%)
Encoded date : UTC 1904-01-01 00:00:00
Tagged date : UTC 1904-01-01 00:00:00

Audio
ID : 2
Format : AAC
Format/Info : Advanced Audio Codec
Format profile : LC
Codec ID : 40
Duration : 50mn 22s
Duration_LastFrame : -21ms
Bit rate mode : Constant
Bit rate : 147 Kbps
Channel(s) : 2 channels
Channel positions : Front: L R
Sampling rate : 48.0 KHz
Compression mode : Lossy
Stream size : 53.1 MiB (16%)
Encoded date : UTC 1904-01-01 00:00:00
Tagged date : UTC 1904-01-01 00:00:00


 :download:










« Last Edit: April 12, 2015, 05:53:42 PM by ✿❤ Nαvєєи ✿❤ »

April 13, 2015, 11:28:19 AM
Reply #4
  • Semi Newbie
  • **
  • Thank You: 0
  • Reputation: 0
  • Activity:
    0%
  • Country: in
  • Posts: 10
  • Topics: 0
  • Join Date: Sep 2012
  • ShareSpark Member

April 13, 2015, 11:38:36 AM
Reply #5
  • Admin
  • Legend Member
  • ****
  • Topic Author
  • Thank You: 2701
  • Reputation: 840
  • Activity:
    0%
  • Country: in
  • Posts: 4534
  • Topics: 3161
  • Join Date: Nov 2011
  • ShareSpark Member
  • Expertises:
  • Hollywood Movies
  • Dubbed Movies
  • English PC Videos

Tags:
 

Related Topics

  Subject / Started by Replies Last post
0 Replies
870 Views
Last post September 03, 2013, 09:09:04 PM
by Maverick.Dude™
0 Replies
679 Views
Last post January 02, 2014, 05:19:12 PM
by sαgαя15sнαн
2 Replies
991 Views
Last post January 04, 2014, 12:36:56 AM
by shubhanshu91
12 Replies
1846 Views
Last post June 16, 2014, 11:23:28 AM
by Admin ♥♫
3 Replies
1065 Views
Last post May 09, 2016, 09:11:24 AM
by -Ð@Rk.ÐèVi£-




Back to top