+ ShareSpark.net »  :::: Dubbed Zone (Dubbed English in Hindi) » English Movies Dubbed in Hindi
|- Super 8 (2011) 720p BRRip x264 [Dual Audio] [Hindi 5.1+English 5.1]...Hon3y


Mastercard 10% Off

Super 8 (2011) 720p BRRip x264 [Dual Audio] [Hindi 5.1+English 5.1]...Hon3y

0 Members and 1 Guest are viewing this topic.

February 22, 2015, 01:37:00 PM
  • Legend
  • Legend Member
  • ***
  • Topic Author
  • Thank You: 725
  • Reputation: 610
  • Activity:
    0%
  • Country: pm
  • Posts: 2247
  • Topics: 818
  • Join Date: Jan 2013
  • Expertises:
  • Bollywood Movies
  • Hindi PC Videos
  • PC Applications


:info:

Code: [Select]
Encoded By @JmD007 - @Hon3yHD




General

Complete name : Super 8 (2011) 720p BRRip x264 [Dual Audio] [Hindi+English]...Hon3y.mkv
Format : Matroska
Format version : Version 4 / Version 2
File size : 1.45 GiB
Duration : 1h 51mn
Overall bit rate : 1 853 Kbps


Video

ID : 1
Format : AVC
Format/Info : Advanced Video Codec
Format profile : [email protected]
Format settings, CABAC : Yes
Format settings, ReFrames : 8 frames
Codec ID : V_MPEG4/ISO/AVC
Duration : 1h 51mn
Bit rate : 1 403 Kbps
Width : 1 280 pixels
Height : 536 pixels
Display aspect ratio : 2.40:1
Frame rate mode : Constant
Frame rate : 23.976 fps
Color space : YUV
Chroma subsampling : 4:2:0
Bit depth : 8 bits
Scan type : Progressive
Bits/(Pixel*Frame) : 0.085
Stream size : 1.07 GiB (74%)
Title : @Hon3yHD
Writing library : x264 core 142 r2431 ac76440


Audio #1

ID : 2
Format : AC-3
Format/Info : Audio Coding 3
Mode extension : CM (complete main)
Format settings, Endianness : Big
Codec ID : A_AC3
Duration : 1h 51mn
Bit rate mode : Constant
Bit rate : 224 Kbps
Channel(s) : 6 channels
Channel positions : Front: L C R, Side: L R, LFE
Sampling rate : 48.0 KHz
Bit depth : 16 bits
Compression mode : Lossy
Stream size : 179 MiB (12%)
Title : @Hon3yHD
Language : Hindi
Default : Yes
Forced : No

Audio #2

ID : 3
Format : AC-3
Format/Info : Audio Coding 3
Mode extension : CM (complete main)
Format settings, Endianness : Big
Codec ID : A_AC3
Duration : 1h 51mn
Bit rate mode : Constant
Bit rate : 224 Kbps
Channel(s) : 6 channels
Channel positions : Front: L C R, Side: L R, LFE
Sampling rate : 48.0 KHz
Bit depth : 16 bits
Compression mode : Lossy
Stream size : 179 MiB (12%)
Title : @Hon3yHD
Language : English
Default : No
Forced : No

:ss:












:download:







Share this topic on FacebookShare this topic on GoogleShare this topic on MySpaceShare this topic on TwitterShare this topic on Yahoo






Tags:
 

Related Topics





Back to top