+ ShareSpark.net »  :::: Bollywood Zone » Bollywood Movies (Original Rips) » TeamSSX Bollywood Releases
|- The Real Prince (2014 ) - Hindi Dubbed - WEBDL 480P - M4GiCi4N ( DR3AM ) - 1ST ON NET


The Real Prince (2014 ) - Hindi Dubbed - WEBDL 480P - M4GiCi4N ( DR3AM ) - 1ST ON NET

0 Members and 1 Guest are viewing this topic.

November 25, 2014, 12:29:04 PM
  • Admin (Inactive)
  • Legend Member
  • ****
  • Topic Author
  • Thank You: 1307
  • Reputation: 520
  • Activity:
    3%
  • Country: bd
  • Posts: 1620
  • Topics: 331
  • Join Date: Jul 2012
  • TRY TO DO SOMETHING SPECIAL
  • Expertises:
  • Bollywood Movies
  • Dubbed Movies
  • PC Applications


:info:

General
Complete name                            : C:\Users\M4GiCi4N\T R P (2014)\The Real Prince (2014 ) - Hindi Dubbed - WEBDL 480P - M4GiCi4N.mp4
Format                                   : MPEG-4
Format profile                           : Base Media
Codec ID                                 : isom
File size                                : 882 MiB
Duration                                 : 2h 15mn
Overall bit rate                         : 910 Kbps
Writing application                      : Lavf54.29.104

Video
ID                                       : 1
Format                                   : AVC
Format/Info                              : Advanced Video Codec
Format profile                           : [email protected]
Format settings, CABAC                   : Yes
Format settings, ReFrames                : 3 frames
Codec ID                                 : avc1
Codec ID/Info                            : Advanced Video Coding
Duration                                 : 2h 15mn
Bit rate                                 : 778 Kbps
Width                                    : 600 pixels
Height                                   : 480 pixels
Display aspect ratio                     : 5:4
Frame rate mode                          : Constant
Frame rate                               : 25.000 fps
Color space                              : YUV
Chroma subsampling                       : 4:2:0
Bit depth                                : 8 bits
Scan type                                : Progressive
Bits/(Pixel*Frame)                       : 0.108
Stream size                              : 754 MiB (85%)

Audio
ID                                       : 2
Format                                   : AAC
Format/Info                              : Advanced Audio Codec
Format profile                           : LC
Codec ID                                 : 40
Duration                                 : 2h 15mn
Bit rate mode                            : Constant
Bit rate                                 : 126 Kbps
Channel(s)                               : 2 channels
Channel positions                        : Front: L R
Sampling rate                            : 44.1 KHz
Compression mode                         : Lossy
Stream size                              : 122 MiB (14%)


 :ss:





















--------------------------------------------------










UsersFiles


BillionUploads


----------------------------------------------------



----------------------------------------------------

Share this topic on FacebookShare this topic on GoogleShare this topic on MySpaceShare this topic on TwitterShare this topic on Yahoo

« Last Edit: November 25, 2014, 12:32:56 PM by DR3AM™ »


Thanks given by:


November 25, 2014, 12:35:13 PM
Reply #1
  • Admin (Inactive)
  • Legend Member
  • ****
  • Topic Author
  • Thank You: 1307
  • Reputation: 520
  • Activity:
    3%
  • Country: bd
  • Posts: 1620
  • Topics: 331
  • Join Date: Jul 2012
  • TRY TO DO SOMETHING SPECIAL
  • Expertises:
  • Bollywood Movies
  • Dubbed Movies
  • PC Applications
IF YOU OTHER LINKS THEN PLEASE COMMENT HERE ....

ENJOY .... :yahoo:  :dance: :crazydancer:

November 25, 2014, 07:15:25 PM
Reply #2
  • CoLoR BoMb
  • Admin
  • Legend Member
  • ****
  • Thank You: 1485
  • Reputation: 996
  • Activity:
    0%
  • Country: cx
  • Posts: 8523
  • Topics: 2008
  • Join Date: Jul 2013
  • Oh! nO
  • Expertises:
  • Ebooks And Students Zone
  • English Album / SoundTrack / OST / Mp3 Songs
  • SMS/Jokes/Poems Zone

November 26, 2014, 06:01:26 PM
Reply #3
  • ==My Life So My Own Rule::::=-----
  • Legend (Inactive)
  • Legend Member
  • ***
  • Thank You: 1000
  • Reputation: 535
  • Activity:
    0%
  • Country: in
  • Posts: 2728
  • Topics: 769
  • Join Date: May 2013
  • ţh€ ʍą$ţ€я ȼяąȼЌ€я
  • Expertises:
  • Bollywood Movies
  • Dubbed Movies
  • PC Games

Tags:
 

Related Topics





Back to top