+ ShareSpark.net »  :::: Dubbed Zone (Dubbed English in Hindi) » English Movies Dubbed in Hindi
|- Troy (2004) Theatrical Cut 720p Blu-Ray x264 [Dual Audio] [Hindi 2.0 - Eng 5.1]


New Promotions of ShareSpark Member's (January 2018) New
Tag users in topic | Receive notifications when you are tagged

Troy (2004) Theatrical Cut 720p Blu-Ray x264 [Dual Audio] [Hindi 2.0 - Eng 5.1]

0 Members and 1 Guest are viewing this topic.

July 21, 2014, 07:13:54 AM
  • *****************
  • Head Admin
  • Legend Member
  • *****
  • Topic Author
  • Thank You: 5511
  • Reputation: 2497
  • Activity:
    100%
  • Country: in
  • Posts: 17313
  • Topics: 10391
  • Join Date: Mar 2012
  • The Time Is Now......


(18+)Troy (2004) Theatrical Cut 720p Blu-Ray x264 [Dual Audio] [Hindi 2.0 - Eng 5.1] By Mx- (HDDR)


Special Thanks To TBI For Hindi Audio






Ratings: 7.2/10


General
Complete name : (18+)Troy (2004) Theatrical Cut 720p Blu-Ray x264 [Dual Audio] [Hindi 2.0 - Eng 5.1] By Mx- (HDDR)
Format : Matroska
Format version : Version 4 / Version 2
File size : 1.55 GiB
Duration : 2h 42mn
Overall bit rate : 1 360 Kbps
Movie name : Mx- Present




Video
ID : 1
Format : AVC
Format/Info : Advanced Video Codec
Format profile : [email protected]
Format settings, CABAC : Yes
Format settings, ReFrames : 4 frames
Codec ID : V_MPEG4/ISO/AVC
Bit rate : 1 077 Kbps
Nominal bit rate : 1 150 Kbps
Width : 1 280 pixels
Height : 528 pixels
Display aspect ratio : 2.40:1
Frame rate mode : Variable
Bit depth : 8 bits
Scan type : Progressive
Title : Mx- Present
Writing library : x264
Language : English
Default : Yes
Forced : No


Audio #1
ID : 2
Format : AC-3
Format/Info : Audio Coding 3
Mode extension : CM (complete main)
Format settings, Endianness : Big
Codec ID : A_AC3
Duration : 2h 42mn
Bit rate mode : Constant
Bit rate : 128 Kbps
Channel(s) : 2 channels
Channel positions : Front: L R
Sampling rate : 48.0 KHz
Bit depth : 16 bits
Compression mode : Lossy
Delay relative to video : -209ms
Stream size : 149 MiB (9%)
Title : Mx-
Language : Hindi
Default : Yes
Forced : No



Audio #2
ID : 3
Format : AC-3
Format/Info : Audio Coding 3
Mode extension : CM (complete main)
Format settings, Endianness : Big
Codec ID : A_AC3
Duration : 2h 42mn
Bit rate mode : Constant
Bit rate : 128 Kbps
Channel(s) : 6 channels
Channel positions : Front: L C R, Side: L R, LFE
Sampling rate : 48.0 KHz
Bit depth : 16 bits
Compression mode : Lossy
Delay relative to video : -209ms
Stream size : 149 MiB (9%)
Title : Mx-
Language : English
Default : No
Forced : No























Share this topic on FacebookShare this topic on GoogleShare this topic on MySpaceShare this topic on TwitterShare this topic on Yahoo

« Last Edit: July 21, 2014, 07:19:23 AM by -Ð@Rk.ÐèVi£- »



December 07, 2017, 01:57:48 PM
Reply #1
  • Devoted Member
  • **
  • Thank You: 0
  • Reputation: 0
  • Activity:
    29%
  • Country: in
  • Posts: 144
  • Topics: 0
  • Join Date: Dec 2015
  • ShareSpark Member

December 07, 2017, 02:41:00 PM
Reply #2
  • Begginer
  • **
  • Thank You: 0
  • Reputation: -1
  • Activity:
    0.4%
  • Posts: 74
  • Topics: 0
  • Join Date: Mar 2012
  • ShareSpark Member

Tags:
 

Related Topics





Back to top