+ ShareSpark.net »  :::: Bollywood Zone » Indian TV Shows
|- Comedy Nights - Ep_44 - [12-Jan-2014] - [WEB_HD 1080p] - (Raveena) - By__MWB


10% SBI and 10% Discount

Comedy Nights - Ep_44 - [12-Jan-2014] - [WEB_HD 1080p] - (Raveena) - By__MWB

0 Members and 1 Guest are viewing this topic.

January 14, 2014, 02:53:33 AM
  • Admin
  • Legend Member
  • ****
  • Topic Author
  • Thank You: 1443
  • Reputation: 862
  • Activity:
    4.8%
  • Country: pk
  • Posts: 4975
  • Topics: 1921
  • Join Date: Aug 2013
  • Free Pirate
  • Expertises:
  • Dubbed Movies
  • Bollywood PC Videos
  • Bollywood & Punjabi Movies


Comedy Nights with Kapil - Episode 44 - [12th-January-2014] - [WEB_HD 1080p] - (Raveena Tandon)  -  By__MWB







..::General::..
Complete name : Comedy.Nights.with.Kapil.Episode.44.12th.January.2014.WEB.HD.1080p.Raveena.Tandon.By.MWB.mkv
Format : Matroska
Format version : Version 4 / Version 2
File size : 1.66 GiB
Duration : 58mn 40s
Overall bit rate : 4 049 Kbps
Encoded date : UTC 2014-01-13 02:45:51
Writing application : mkvmerge v6.7.0 ('Back to the Ground') 64bit built on Jan  8 2014 15:10:52
Writing library : libebml v1.3.0 + libmatroska v1.4.1

..::Video::..
ID : 1
Format : AVC
Format/Info : Advanced Video Codec
Format profile : [email protected]
Format settings, CABAC : Yes
Format settings, ReFrames : 2 frames
Codec ID : V_MPEG4/ISO/AVC
Duration : 58mn 40s
Bit rate : 3 648 Kbps
Width : 1 920 pixels
Height : 1 080 pixels
Display aspect ratio : 16:9
Frame rate mode : Constant
Frame rate : 25.000 fps
Color space : YUV
Chroma subsampling : 4:2:0
Bit depth : 8 bits
Scan type : Progressive
Bits/(Pixel*Frame) : 0.070
Stream size : 1.50 GiB (90%)
Language : Hindi
Default : Yes
Forced : No

..::Audio::..
ID : 2
Format : AC-3
Format/Info : Audio Coding 3
Mode extension : CM (complete main)
Format settings, Endianness : Big
Codec ID : A_AC3
Duration : 58mn 40s
Bit rate mode : Constant
Bit rate : 320 Kbps
Channel(s) : 2 channels
Channel positions : Front: L R
Sampling rate : 44.1 KHz
Bit depth : 16 bits
Compression mode : Lossy
Stream size : 134 MiB (8%)
Language : Hindi
Default : Yes
Forced : No























































Share this topic on FacebookShare this topic on GoogleShare this topic on MySpaceShare this topic on TwitterShare this topic on Yahoo



Thanks given by:


Tags:
 

Related Topics





Back to top