+ ShareSpark.net »  :::: Bollywood Zone » Indian TV Shows
|- Indias Got Talent 5 - Episode 1 - January 11th 2014 - ThaChamp4Eva - By__MWB


TV and Appliances

Indias Got Talent 5 - Episode 1 - January 11th 2014 - ThaChamp4Eva - By__MWB

0 Members and 1 Guest are viewing this topic.

January 13, 2014, 02:24:35 AM
  • Admin
  • Legend Member
  • ****
  • Topic Author
  • Thank You: 1443
  • Reputation: 862
  • Activity:
    4.8%
  • Country: pk
  • Posts: 4975
  • Topics: 1921
  • Join Date: Aug 2013
  • Free Pirate
  • Expertises:
  • Dubbed Movies
  • Bollywood PC Videos
  • Bollywood & Punjabi Movies
Indias Got Talent 5 - Episode 1 - January 11th 2014 - ThaChamp4Eva  -  By__MWB





..::General::..
Format : AVI
Format/Info : Audio Video Interleave
File size : 659 MiB
Duration : 1h 8mn
Overall bit rate : 1 341 Kbps
Writing application : Lavf52.61.0

..::Video::..
ID : 0
Format : MPEG-4 Visual
Format profile : [email protected]
Format settings, BVOP : No
Format settings, QPel : No
Format settings, GMC : No warppoints
Format settings, Matrix : Default (H.263)
Codec ID : XVID
Codec ID/Hint : XviD
Duration : 1h 8mn
Bit rate : 1 199 Kbps
Width : 640 pixels
Height : 360 pixels
Display aspect ratio : 16:9
Frame rate : 29.970 fps
Color space : YUV
Chroma subsampling : 4:2:0
Bit depth : 8 bits
Scan type : Progressive
Compression mode : Lossy
Bits/(Pixel*Frame) : 0.174
Stream size : 590 MiB (89%)
Writing library : XviD 1.2.1 (UTC 2008-12-04)

..::Audio::..
ID : 1
Format : MPEG Audio
Format version : Version 1
Format profile : Layer 3
Mode : Joint stereo
Mode extension : MS Stereo
Codec ID : 55
Codec ID/Hint : MP3
Duration : 1h 8mn
Bit rate mode : Constant
Bit rate : 128 Kbps
Channel count : 2 channels
Sampling rate : 44.1 KHz
Compression mode : Lossy
Stream size : 62.9 MiB (10%)
Alignment : Aligned on interleaves
Interleave, duration : 26 ms (0.78 video frame)
Writing library : LAME3.97














































Share this topic on FacebookShare this topic on GoogleShare this topic on MySpaceShare this topic on TwitterShare this topic on Yahoo



Thanks given by:


Tags:
 

Related Topics

  Subject / Started by Replies Last post
1 Replies
678 Views
Last post January 14, 2014, 03:39:36 AM
by gooshi
0 Replies
656 Views
Last post January 31, 2014, 07:30:50 PM
by м ωαqαя вuтт
0 Replies
686 Views
Last post January 31, 2014, 07:32:24 PM
by м ωαqαя вuтт
20 Replies
4174 Views
Last post July 10, 2016, 11:42:27 PM
by abcxyz1
0 Replies
72 Views
Last post November 11, 2018, 11:46:52 AM
by janapritam007




Back to top