+ ShareSpark.net »  :::: Bollywood Zone » Indian TV Shows
|- Comedy Nights - Episode __ 37 - [1-12-2013] - [WEB_HD 1080p] - (Saif) - By__MWB


TV and Appliances

Comedy Nights - Episode __ 37 - [1-12-2013] - [WEB_HD 1080p] - (Saif) - By__MWB

0 Members and 1 Guest are viewing this topic.

December 02, 2013, 04:22:51 PM
  • Admin
  • Legend Member
  • ****
  • Topic Author
  • Thank You: 1443
  • Reputation: 862
  • Activity:
    4.8%
  • Country: pk
  • Posts: 4975
  • Topics: 1921
  • Join Date: Aug 2013
  • Free Pirate
  • Expertises:
  • Dubbed Movies
  • Bollywood PC Videos
  • Bollywood & Punjabi Movies
Comedy Nights With Kapil - Episode __ 37 - [1st__December__2013] - [WEB_HD 1080p]
(Saif Ali Khan)




..::General::..

Complete name  :  Episode.37.[1st.December.2013].pWEB_HD].1080p.(Saif.Ali.Khan)-By__MWB.mkv
Format  :  Matroska
Format version  :  Version 4 / Version 2
File size  :  1.73 GiB
Duration  : 1h 0mn
Overall bit rate  :  4112 Kbps
Encoded date  :  UTC 2013-12-02 04:26:47
Writing application  :  mkvmerge v6.6.0 ('The Edge Of The In Between') built on Dec  1 2013 17:55:00
Writing library  :  libebml v1.3.0 + libmatroska v1.4.1

..::Video::..
ID  :  1
Format  :  AVC
Format/Info  :  Advanced Video Codec
Format profile  :  [email protected]
Format settings, CABAC  :  Yes
Format settings, ReFrames  :  2 frames
Codec ID  :  V_MPEG4/ISO/AVC
Duration  :  1h 0mn
Bit rate  :  3710 Kbps
Width  :  1920 pixels
Height  :  1080 pixels
Display aspect ratio  :  16:9
Frame rate mode  :  Constant
Frame rate  :  25.000 fps
Color space  :  YUV
Chroma subsampling  :  4:2:0
Bit depth  :  8 bits
Scan type  :  Progressive
Bits/(Pixel*Frame)  :  0.072
Stream size  :  1.57 GiB (90%)
Language  :  Hindi
Default  :  Yes
Forced  :  No

..::Audio::..
ID  :  2
Format  :  AC-3
Format/Info  :  Audio Coding 3
Mode extension  :  CM (complete main)
Format settings, Endianness  :  Big
Codec ID  :  A_AC3
Duration  :  1h 0mn
Bit rate mode  :  Constant
Bit rate  :  320 Kbps
Channel count  :  6 channels
Channel positions  :  Front: L C R, Side: L R, LFE
Sampling rate  :  48.0 KHz
Bit depth  :  16 bits
Compression mode  :  Lossy
Stream size  :  138 MiB (8%)
Language  :  Hindi
Default  :  Yes
Forced  :  No


































If u like my post please add + rep and hit thanks

Share this topic on FacebookShare this topic on GoogleShare this topic on MySpaceShare this topic on TwitterShare this topic on Yahoo



Thanks given by:


Tags:
 

Related Topics





Back to top