+ ShareSpark.net »  :::: Dubbed Zone (Dubbed English in Hindi) » English Movies Dubbed in Hindi
|- Beverly Hill Ninja 1997 DvDrip Dual-Audio [Eng-Hindi] | 845 MB


HDFC 10% Off

Beverly Hill Ninja 1997 DvDrip Dual-Audio [Eng-Hindi] | 845 MB

0 Members and 1 Guest are viewing this topic.

September 19, 2011, 01:57:04 AM
  • Head Admin
  • Legend Member
  • *****
  • Topic Author
  • Thank You: 1363
  • Reputation: 1060
  • Activity:
    0%
  • Posts: 5589
  • Topics: 1505
  • Join Date: Dec 2010
  • Expertises:
  • Tv Shows
Beverly Hill Ninja 1997 DvDrip Dual-Audio [Eng-Hindi]

IMDB:-


PLOT:- An unlikely man raised by ninjas, goes against a counterfeiter with the help of the criminal's girlfriend.

Director: Dennis Dugan
Writers: Mark Feldberg, Mitchell Klebanoff
Stars: Chris Farley, Nicollette Sheridan and Robin Shou

INFO:-

General
Complete name                    : Beverly.Hill.Ninja.1997.DvDrip.Dual.Audio.Eng-Hindi
Format                           : Matroska
File size                        : 845 MiB
Duration                         : 1h 24mn
Overall bit rate                 : 1 391 Kbps
Encoded date                     : UTC 2011-06-08 16:46:40

Video
ID                               : 1
Format                           : MPEG-4 Visual
Format profile                   : Advanced [email protected]
Format settings, BVOP            : Yes
Format settings, QPel            : No
Format settings, GMC             : No warppoints
Format settings, Matrix          : Custom
Codec ID                         : XVID
Codec ID/Hint                    : XviD
Duration                         : 1h 24mn
Bit rate                         : 932 Kbps
Width                            : 624 pixels
Height                           : 352 pixels
Display aspect ratio             : 16:9
Frame rate                       : 25.000 fps
Original frame rate              : 23.976 fps
Color space                      : YUV
Chroma subsampling               : 4:2:0
Bit depth                        : 8 bits
Scan type                        : Progressive
Compression mode                 : Lossy
Bits/(Pixel*Frame)               : 0.170
Stream size                      : 567 MiB (67%)
Writing library                  : XviD 1.2.1 (UTC 2008-12-04)

Audio #1
ID                               : 2
Format                           : MPEG Audio
Format version                   : Version 1
Format profile                   : Layer 3
Mode                             : Joint stereo
Mode extension                   : MS Stereo
Codec ID                         : A_MPEG/L3
Codec ID/Hint                    : MP3
Duration                         : 1h 28mn
Bit rate mode                    : Variable
Bit rate                         : 175 Kbps
Nominal bit rate                 : 192 Kbps
Channel(s)                       : 2 channels
Sampling rate                    : 48.0 KHz
Compression mode                 : Lossy
Stream size                      : 111 MiB (13%)
Writing library                  : LAME3.98r
Language                         : English

Audio #2
ID                               : 3
Format                           : MPEG Audio
Format version                   : Version 1
Format profile                   : Layer 3
Codec ID                         : A_MPEG/L3
Codec ID/Hint                    : MP3
Duration                         : 1h 24mn
Bit rate mode                    : Constant
Bit rate                         : 256 Kbps
Channel(s)                       : 2 channels
Sampling rate                    : 48.0 KHz
Compression mode                 : Lossy
Stream size                      : 156 MiB (18%)
Language                         : Hindi

SCREENSHOTS:-
 






____________
845 MB

Share this topic on FacebookShare this topic on GoogleShare this topic on MySpaceShare this topic on TwitterShare this topic on Yahoo



If you like any post, then say thanks to the uploader by posting in his topic, adding thanks and reputes to him.
Because we all want is just a little appreciation from you.

Tags:
 

Related Topics





Back to top