+ ShareSpark.net »  :::: Dubbed Zone (Dubbed English in Hindi) » English Movies Dubbed in Hindi
|- Jack Reacher 2012 720p BrRip Dual Audio[English-Hindi] x264 the.HH


Jack Reacher 2012 720p BrRip Dual Audio[English-Hindi] x264 the.HH

0 Members and 1 Guest are viewing this topic.

May 29, 2013, 12:58:15 PM
  • Newbie
  • **
  • Topic Author
  • Thank You: 9
  • Reputation: 4
  • Activity:
    0%
  • Posts: 47
  • Topics: 9
  • Join Date: Jan 2013
  • ShareSpark Member
Torrable - One stop for all your download & upload needs. It's smart, easy and free.
Jack Reacher 2012 720p BrRip Dual Audio[English-Hindi] x264 the.HH

Original DVD Hindi AUDIO
General
Format : MPEG-4
File size : 1.22 GiB
Duration : 2h 10mn
Overall bit rate mode : Variable
Overall bit rate : 1 340 Kbps

Video
ID : 1
Format : AVC
Format/Info : Advanced Video Codec
Format profile : [email protected]
Format settings, CABAC : Yes
Format settings, ReFrames : 12 frames
Codec ID : avc1
Codec ID/Info : Advanced Video Coding
Duration : 2h 10mn
Bit rate : 1 112 Kbps
Width : 1 280 pixels
Height : 544 pixels
Display aspect ratio : 2.35:1
Frame rate mode : Constant
Frame rate : 23.976 fps
Bit depth : 8 bits
Stream size : 1.01 GiB (83%)
Title : JACK REACHER the.HH

Audio #1
ID : 2
Format : AAC
Format/Info : Advanced Audio Codec
Format profile : LC
Codec ID : 40
Duration : 2h 10mn
Bit rate : 96.0 Kbps
Channel(s) : 2 channels
Channel positions : Front: L R
Stream size : 89.4 MiB (7%)
Title : JACK REACHER the.HH eng
Language : English


Audio #2
ID : 3
Format : AAC
Format/Info : Advanced Audio Codec
Format profile : LC
Duration : 2h 10mn
Bit rate : 128 Kbps
Channel(s) : 2 channels
Channel positions : Front: L R
Stream size : 119 MiB (10%)
Title : JACK REACHER the.HH hindi
Language : Hindi

Screens




DOWNLOAD LINKS
(One-Click Download)
(DAVVAS)

NOTE: Switch  to 2nd audio stream for HINDI AUDIO
Have A niCe DaY!!!

Share this topic on FacebookShare this topic on GoogleShare this topic on MySpaceShare this topic on TwitterShare this topic on Yahoo

« Last Edit: May 29, 2013, 01:16:43 PM by thehh »



May 29, 2013, 12:58:42 PM
Reply #1
  • Newbie
  • **
  • Topic Author
  • Thank You: 9
  • Reputation: 4
  • Activity:
    0%
  • Posts: 47
  • Topics: 9
  • Join Date: Jan 2013
  • ShareSpark Member

May 29, 2013, 01:00:56 PM
Reply #2
  • Admin (Inactive)
  • Legend Member
  • ****
  • Thank You: 1301
  • Reputation: 518
  • Activity:
    0.2%
  • Country: bd
  • Posts: 1605
  • Topics: 330
  • Join Date: Jul 2012
  • TRY TO DO SOMETHING SPECIAL
  • Expertises:
  • Bollywood Movies
  • Dubbed Movies
  • PC Applications
REMOVE BIT.LY LINKS .. OTHERWISE  UR POST WILL BE REMOVED ....

Tags:
 

Related Topics

  Subject / Started by Replies Last post
3 Replies
700 Views
Last post May 25, 2013, 02:12:18 PM
by scgoldy03
6 Replies
932 Views
Last post June 17, 2013, 01:11:08 PM
by sαgαя15sнαн
4 Replies
639 Views
Last post June 12, 2013, 06:49:21 PM
by DR3AM™
5 Replies
904 Views
Last post October 06, 2013, 09:10:43 AM
by ıllıllı αнʍє иυя ıllıllı
1 Replies
537 Views
Last post March 27, 2015, 04:12:56 PM
by Dhruvparekh




Back to top