+ ShareSpark.net »  :::: Dubbed Zone (Dubbed English in Hindi) » English Movies Dubbed in Hindi » High Resolution Movies
|- Life (2017) 1080p BluRay x264 Dual Audio [Hindi DD2.0 - English DD5.1] - ESUB ~ Ranvijay [Team SSX]


Life (2017) 1080p BluRay x264 Dual Audio [Hindi DD2.0 - English DD5.1] - ESUB ~ Ranvijay [Team SSX]

0 Members and 1 Guest are viewing this topic.

August 13, 2019, 08:53:04 AM
  • Legend
  • Legend Member
  • ***
  • Topic Author
  • Thank You: 14097
  • Reputation: 2874
  • Activity:
    59%
  • Country: in
  • Posts: 6151
  • Topics: 5034
  • Join Date: Jan 2014
  • ıllıllı ѕмoĸιng ιѕ good ғor нealтн ıllıllı :)








Life (2017) 1080p BluRay x264 Dual Audio [Hindi DD2.0 - English DD5.1] - ESUB ~ Ranvijay [Team SSX]

Thanks To Weapon-X For Hindi Audio


General
Format                                   : Matroska
Format version                           : Version 4 / Version 2
File size                                : 3.52 GiB
Duration                                 : 1 h 43 min
Overall bit rate                         : 4 850 kb/s
Movie name                               : Life (2017) 1080p BluRay x264 Dual Audio [Hindi DD2.0 - English DD5.1] - ESUB ~ Ranvijay~

Video
ID                                       : 1
Format                                   : AVC
Format/Info                              : Advanced Video Codec
Duration                                 : 1 h 43 min
Bit rate                                 : 4 000 kb/s
Width                                    : 1 920 pixels
Height                                   : 800 pixels
Display aspect ratio                     : 2.40:1
Frame rate mode                          : Constant
Frame rate                               : 23.976 (24000/1001) FPS
Color space                              : YUV
Chroma subsampling                       : 4:2:0
Bit depth                                : 8 bits
Scan type                                : Progressive
Bits/(Pixel*Frame)                       : 0.109
Stream size                              : 2.90 GiB (82%)
Title                                    : ~Ranvijay~

Audio #1
ID                                       : 2
Format                                   : AC-3
Format/Info                              : Audio Coding 3
Codec ID                                 : A_AC3
Duration                                 : 1 h 43 min
Bit rate mode                            : Constant
Bit rate                                 : 448 kb/s
Channel(s)                               : 2 channels
Channel positions                        : Front: L R
Sampling rate                            : 48.0 kHz
Frame rate                               : 31.250 FPS (1536 SPF)
Bit depth                                : 16 bits
Compression mode                         : Lossy
Stream size                              : 333 MiB (9%)
Title                                    : ~Ranvijay~
Language                                 : Hindi
Service kind                             : Complete Main
Default                                  : Yes
Forced                                   : Yes

Audio #2
ID                                       : 3
Format                                   : AC-3
Format/Info                              : Audio Coding 3
Codec ID                                 : A_AC3
Duration                                 : 1 h 43 min
Bit rate mode                            : Constant
Bit rate                                 : 384 kb/s
Channel(s)                               : 6 channels
Channel positions                        : Front: L C R, Side: L R, LFE
Sampling rate                            : 48.0 kHz
Frame rate                               : 31.250 FPS (1536 SPF)
Bit depth                                : 16 bits
Compression mode                         : Lossy
Stream size                              : 286 MiB (8%)
Title                                    : ~Ranvijay~
Language                                 : English
Service kind                             : Complete Main
Default                                  : No
Forced                                   : No

Text
ID                                       : 4
Format                                   : PGS
Muxing mode                              : zlib
Codec ID                                 : S_HDMV/PGS
Codec ID/Info                            : Picture based subtitle format used on BDs/HD-DVDs
Duration                                 : 1 h 31 min
Bit rate                                 : 36.4 kb/s
Count of elements                        : 2210
Stream size                              : 23.7 MiB (1%)
Title                                    : ~Ranvijay~
Language                                 : English
Default                                  : Yes
Forced                                   : Yes

Menu
00:00:00.000                             : :Chapter 01
00:09:32.863                             : :Chapter 02
00:13:13.083                             : :Chapter 03
00:15:36.894                             : :Chapter 04
00:19:35.340                             : :Chapter 05
00:24:57.454                             : :Chapter 06
00:34:36.991                             : :Chapter 07
00:40:45.109                             : :Chapter 08
00:43:59.303                             : :Chapter 09
00:52:21.805                             : :Chapter 10
00:58:33.927                             : :Chapter 11
01:06:37.785                             : :Chapter 12
01:11:43.257                             : :Chapter 13
01:17:50.874                             : :Chapter 14
01:22:39.621                             : :Chapter 15
01:28:34.309                             : :Chapter 16












:download:

Quote


File Leeched & Uploaded From




Don't walk as you are king, walk as you don't care who the king is....!!
Never argue with an idiot. They drag you down to their level and then beat you with experience?

Share this topic on FacebookShare this topic on GoogleShare this topic on MySpaceShare this topic on TwitterShare this topic on Yahoo




Don't walk as you are king, walk as you don't care who the king is....!!

Thanks given by:


August 19, 2019, 02:50:46 PM
Reply #1
  • Royal Member
  • ****
  • Thank You: 1
  • Reputation: 2
  • Activity:
    1.8%
  • Posts: 883
  • Topics: 2
  • Join Date: Apr 2012
  • ShareSpark Member
aap ka upload karny ka kiya fida jab hum  is site '
' se donwnload hi nahi karpaty.

August 20, 2019, 12:17:07 AM
Reply #2
  • Hero Member
  • ***
  • Thank You: 4
  • Reputation: -5
  • Activity:
    15%
  • Country: pk
  • Posts: 391
  • Topics: 8
  • Join Date: Mar 2013
  • ShareSpark Member
im having issue downloading it
i have space left in my gdrive
is this with me or there is something wrong?

August 20, 2019, 01:28:23 AM
Reply #3
  • Conqueror
  • Elite Forces
  • *****
  • Thank You: 494
  • Reputation: 185
  • Activity:
    2%
  • Country: in
  • Posts: 1146
  • Topics: 490
  • Join Date: Oct 2015
  • Hit ThanX Button 🔳 N Repute Button 🔳
aap ka upload karny ka kiya fida jab hum  is site '
' se donwnload hi nahi karpaty.

Kyon Download Ho Raha Kya Eror Aya Apna Google Drive ka Space Kam Karo Jitne Gb ki Fie Hai Utna GB 🆓 Jarori Hai
Hit Thnx Button 🔳 N + Repute Button 🔳 Always Appreciate UploadeR 🤗 GiVe Respect GeT Respect :yu:

August 21, 2019, 03:24:09 PM
Reply #4
  • Royal Member
  • ****
  • Thank You: 1
  • Reputation: 2
  • Activity:
    1.8%
  • Posts: 883
  • Topics: 2
  • Join Date: Apr 2012
  • ShareSpark Member
With respect jackRoSe when i click on links msg disply

                   404: Page Not Found
" The file you are trying to download is no longer available
This could be due to the following reasons:
The file has been removed because of a Tos/AUP violation.
Invalid URL - the link you are trying to access does not exist
The file has been deleted by the user."
Anyway Thanks for replying ..:thank:
« Last Edit: August 21, 2019, 03:25:29 PM by shahidimran »

August 21, 2019, 09:19:40 PM
Reply #5
  • Legend
  • Legend Member
  • ***
  • Topic Author
  • Thank You: 14097
  • Reputation: 2874
  • Activity:
    59%
  • Country: in
  • Posts: 6151
  • Topics: 5034
  • Join Date: Jan 2014
  • ıllıllı ѕмoĸιng ιѕ good ғor нealтн ıllıllı :)
With respect jackRoSe when i click on links msg disply

                   404: Page Not Found
" The file you are trying to download is no longer available
This could be due to the following reasons:

Use VPN Nd Set Location To Singapore
Will Work 1000000%
:thank::thank:
The file has been removed because of a Tos/AUP violation.
Invalid URL - the link you are trying to access does not exist
The file has been deleted by the user."
Anyway Thanks for replying ..:thank:

Don't walk as you are king, walk as you don't care who the king is....!!

Tags:
 

Related Topics





Back to top