+ ShareSpark.net »  :::: Dubbed Zone (Dubbed English in Hindi) » English Movies Dubbed in Hindi » High Resolution Movies
|- Tolkien (2019) 1080p BluRay x264 Dual Audio [Hindi Org BD DD5.1 - English DD5.1] - MSUBS ~ Ranvijay


Tolkien (2019) 1080p BluRay x264 Dual Audio [Hindi Org BD DD5.1 - English DD5.1] - MSUBS ~ Ranvijay

0 Members and 1 Guest are viewing this topic.

August 13, 2019, 08:45:31 AM
  • Legend
  • Legend Member
  • ***
  • Topic Author
  • Thank You: 14097
  • Reputation: 2874
  • Activity:
    59%
  • Country: in
  • Posts: 6151
  • Topics: 5034
  • Join Date: Jan 2014
  • ıllıllı ѕмoĸιng ιѕ good ғor нealтн ıllıllı :)








Tolkien (2019) 1080p BluRay x264 Dual Audio [Hindi Org BD DD5.1 - English DD5.1] - MSUBS ~ Ranvijay [Team SSX]

Quote
General
Format                                   : Matroska
Format version                           : Version 4 / Version 2
File size                                : 4.21 GiB
Duration                                 : 1 h 51 min
Overall bit rate                         : 5 390 kb/s
Movie name                               : Tolkien (2019) 1080p BluRay x264 Dual Audio [Hindi Org BD DD5.1 - English DD5.1] - MSUBS ~ Ranvijay

Video
ID                                       : 1
Format                                   : AVC
Format/Info                              : Advanced Video Codec
Duration                                 : 1 h 51 min
Bit rate                                 : 4 500 kb/s
Width                                    : 1 920 pixels
Height                                   : 800 pixels
Display aspect ratio                     : 2.40:1
Frame rate mode                          : Constant
Frame rate                               : 23.976 (24000/1001) FPS
Color space                              : YUV
Chroma subsampling                       : 4:2:0
Bit depth                                : 8 bits
Scan type                                : Progressive
Bits/(Pixel*Frame)                       : 0.122
Stream size                              : 3.51 GiB (83%)
Title                                    : ~Ranvijay~

Audio #1
ID                                       : 2
Format                                   : AC-3
Format/Info                              : Audio Coding 3
Codec ID                                 : A_AC3
Duration                                 : 1 h 51 min
Bit rate mode                            : Constant
Bit rate                                 : 448 kb/s
Channel(s)                               : 6 channels
Channel positions                        : Front: L C R, Side: L R, LFE
Sampling rate                            : 48.0 kHz
Frame rate                               : 31.250 FPS (1536 SPF)
Bit depth                                : 16 bits
Compression mode                         : Lossy
Stream size                              : 358 MiB (8%)
Title                                    : ~Ranvijay~
Language                                 : Hindi
Service kind                             : Complete Main
Default                                  : Yes
Forced                                   : Yes

Audio #2
ID                                       : 3
Format                                   : AC-3
Format/Info                              : Audio Coding 3
Codec ID                                 : A_AC3
Duration                                 : 1 h 51 min
Bit rate mode                            : Constant
Bit rate                                 : 384 kb/s
Channel(s)                               : 6 channels
Channel positions                        : Front: L C R, Side: L R, LFE
Sampling rate                            : 48.0 kHz
Frame rate                               : 31.250 FPS (1536 SPF)
Bit depth                                : 16 bits
Compression mode                         : Lossy
Stream size                              : 307 MiB (7%)
Title                                    : ~Ranvijay~
Language                                 : English
Service kind                             : Complete Main
Default                                  : No
Forced                                   : No

Text #1
ID                                       : 4
Format                                   : PGS
Muxing mode                              : zlib
Codec ID                                 : S_HDMV/PGS
Codec ID/Info                            : Picture based subtitle format used on BDs/HD-DVDs
Duration                                 : 1 h 44 min
Bit rate                                 : 73.3 kb/s
Count of elements                        : 3514
Stream size                              : 54.7 MiB (1%)
Title                                    : ~Ranvijay~
Language                                 : English
Default                                  : Yes
Forced                                   : Yes

Text #2
ID                                       : 5
Format                                   : PGS
Muxing mode                              : zlib
Codec ID                                 : S_HDMV/PGS
Codec ID/Info                            : Picture based subtitle format used on BDs/HD-DVDs
Duration                                 : 1 h 50 min
Bit rate                                 : 52.4 kb/s
Count of elements                        : 2783
Stream size                              : 41.3 MiB (1%)
Title                                    : ~Ranvijay~
Language                                 : Hindi
Default                                  : No
Forced                                   : No

Text #3
ID                                       : 6
Format                                   : PGS
Muxing mode                              : zlib
Codec ID                                 : S_HDMV/PGS
Codec ID/Info                            : Picture based subtitle format used on BDs/HD-DVDs
Duration                                 : 1 h 50 min
Bit rate                                 : 1 480 b/s
Count of elements                        : 74
Stream size                              : 1.17 MiB (0%)
Title                                    : ~Ranvijay~
Language                                 : Hindi
Default                                  : No
Forced                                   : No

Menu
00:00:00.000                             : en:00:00:00.000
00:06:27.137                             : en:00:06:27.137
00:11:09.419                             : en:00:11:09.419
00:15:51.117                             : en:00:15:51.117
00:21:00.885                             : en:00:21:00.885
00:25:53.802                             : en:00:25:53.802
00:34:35.031                             : en:00:34:35.031
00:37:46.639                             : en:00:37:46.639
00:42:01.227                             : en:00:42:01.227
00:44:44.098                             : en:00:44:44.098
00:47:39.774                             : en:00:47:39.774
00:52:04.955                             : en:00:52:04.955
00:57:06.423                             : en:00:57:06.423
00:59:59.971                             : en:00:59:59.971
01:04:39.334                             : en:01:04:39.334
01:08:09.002                             : en:01:08:09.002
01:11:17.398                             : en:01:11:17.398
01:14:29.090                             : en:01:14:29.090
01:19:45.656                             : en:01:19:45.656
01:26:09.539                             : en:01:26:09.539
01:32:11.985                             : en:01:32:11.985
01:35:52.497                             : en:01:35:52.497
01:40:05.666                             : en:01:40:05.666
01:45:06.091                             : en:01:45:06.091
















:download:

Quote


File Leeched & Uploaded From




Don't walk as you are king, walk as you don't care who the king is....!!
Never argue with an idiot. They drag you down to their level and then beat you with experience?

Share this topic on FacebookShare this topic on GoogleShare this topic on MySpaceShare this topic on TwitterShare this topic on Yahoo

« Last Edit: August 18, 2019, 09:52:00 PM by Rάήνίјάч1234 »



Don't walk as you are king, walk as you don't care who the king is....!!

Thanks given by:


August 13, 2019, 10:01:23 AM
Reply #1
  • Senior Member
  • ***
  • Thank You: 16
  • Reputation: 10
  • Activity:
    0.2%
  • Posts: 246
  • Topics: 17
  • Join Date: Feb 2013
  • ShareSpark Member

August 13, 2019, 09:56:33 PM
Reply #2
  • Semi Newbie
  • **
  • Thank You: 0
  • Reputation: -1
  • Activity:
    0.2%
  • Country: in
  • Posts: 30
  • Topics: 0
  • Join Date: Oct 2016
  • ShareSpark Member

August 18, 2019, 09:52:29 PM
Reply #3
  • Legend
  • Legend Member
  • ***
  • Topic Author
  • Thank You: 14097
  • Reputation: 2874
  • Activity:
    59%
  • Country: in
  • Posts: 6151
  • Topics: 5034
  • Join Date: Jan 2014
  • ıllıllı ѕмoĸιng ιѕ good ғor нealтн ıllıllı :)

Don't walk as you are king, walk as you don't care who the king is....!!

August 20, 2019, 01:15:24 AM
Reply #4
  • Hero Member
  • ***
  • Thank You: 4
  • Reputation: -5
  • Activity:
    15%
  • Country: pk
  • Posts: 391
  • Topics: 8
  • Join Date: Mar 2013
  • ShareSpark Member
thank u so much for listening to my feedback for 4gb to 5gb file size.

 :thank: :bravo: :rep:

Tags:
 

Related Topics





Back to top