+ ShareSpark.net »  :::: Dubbed Zone (Dubbed English in Hindi) » English Movies Dubbed in Hindi » High Resolution Movies
|- The Book of Eli (2010) 1080p BluRay x264 Dual Audio [Hindi DD2.0 - English DD5.1] - MSUBS ~ Ranvijay


The Book of Eli (2010) 1080p BluRay x264 Dual Audio [Hindi DD2.0 - English DD5.1] - MSUBS ~ Ranvijay

0 Members and 1 Guest are viewing this topic.

August 13, 2019, 08:40:02 AM
  • Legend
  • Legend Member
  • ***
  • Topic Author
  • Thank You: 14097
  • Reputation: 2874
  • Activity:
    59%
  • Country: in
  • Posts: 6151
  • Topics: 5034
  • Join Date: Jan 2014
  • ıllıllı ѕмoĸιng ιѕ good ғor нealтн ıllıllı :)








The Book of Eli (2010) 1080p BluRay x264 Dual Audio [Hindi DD2.0 - English DD5.1] - MSUBS ~ Ranvijay [Team SSX]

Thanks To Hammer For Hindi Audio



General
Format                                   : Matroska
Format version                           : Version 4 / Version 2
File size                                : 4.21 GiB
Duration                                 : 1 h 57 min
Overall bit rate                         : 5 126 kb/s
Movie name                               : The Book of Eli (2010) 1080p BluRay x264 Dual Audio [Hindi DD2.0 - English DD5.1] - MSUBS ~ Ranvijay

Video
ID                                       : 1
Format                                   : AVC
Format/Info                              : Advanced Video Codec
Duration                                 : 1 h 57 min
Bit rate                                 : 4 500 kb/s
Width                                    : 1 920 pixels
Height                                   : 800 pixels
Display aspect ratio                     : 2.40:1
Frame rate mode                          : Constant
Frame rate                               : 23.976 (24000/1001) FPS
Color space                              : YUV
Chroma subsampling                       : 4:2:0
Bit depth                                : 8 bits
Scan type                                : Progressive
Bits/(Pixel*Frame)                       : 0.122
Stream size                              : 3.70 GiB (88%)
Title                                    : ~Ranvijay~

Audio #1
ID                                       : 2
Format                                   : AC-3
Format/Info                              : Audio Coding 3
Codec ID                                 : A_AC3
Duration                                 : 1 h 57 min
Bit rate mode                            : Constant
Bit rate                                 : 224 kb/s
Channel(s)                               : 2 channels
Channel positions                        : Front: L R
Sampling rate                            : 48.0 kHz
Frame rate                               : 31.250 FPS (1536 SPF)
Bit depth                                : 16 bits
Compression mode                         : Lossy
Delay relative to video                  : 1 s 0 ms
Stream size                              : 188 MiB (4%)
Title                                    : ~Ranvijay~
Language                                 : Hindi
Service kind                             : Complete Main
Default                                  : Yes
Forced                                   : Yes

Audio #2
ID                                       : 3
Format                                   : AC-3
Format/Info                              : Audio Coding 3
Codec ID                                 : A_AC3
Duration                                 : 1 h 57 min
Bit rate mode                            : Constant
Bit rate                                 : 384 kb/s
Channel(s)                               : 6 channels
Channel positions                        : Front: L C R, Side: L R, LFE
Sampling rate                            : 48.0 kHz
Frame rate                               : 31.250 FPS (1536 SPF)
Bit depth                                : 16 bits
Compression mode                         : Lossy
Stream size                              : 323 MiB (7%)
Title                                    : ~Ranvijay~
Language                                 : English
Service kind                             : Complete Main
Default                                  : No
Forced                                   : No

Text #1
ID                                       : 4
Format                                   : PGS
Muxing mode                              : zlib
Codec ID                                 : S_HDMV/PGS
Codec ID/Info                            : Picture based subtitle format used on BDs/HD-DVDs
Duration                                 : 1 h 40 min
Bit rate                                 : 22.2 kb/s
Count of elements                        : 1688
Stream size                              : 15.9 MiB (0%)
Title                                    : ~Ranvijay~
Language                                 : English
Default                                  : Yes
Forced                                   : Yes

Text #2
ID                                       : 5
Format                                   : PGS
Muxing mode                              : zlib
Codec ID                                 : S_HDMV/PGS
Codec ID/Info                            : Picture based subtitle format used on BDs/HD-DVDs
Duration                                 : 1 h 46 min
Bit rate                                 : 20.1 kb/s
Count of elements                        : 2185
Stream size                              : 15.4 MiB (0%)
Title                                    : ~Ranvijay~
Language                                 : English
Default                                  : No
Forced                                   : No

Text #3
ID                                       : 6
Format                                   : PGS
Muxing mode                              : zlib
Codec ID                                 : S_HDMV/PGS
Codec ID/Info                            : Picture based subtitle format used on BDs/HD-DVDs
Duration                                 : 1 h 40 min
Bit rate                                 : 18.6 kb/s
Count of elements                        : 1702
Stream size                              : 13.3 MiB (0%)
Title                                    : ~Ranvijay~
Language                                 : Hindi
Default                                  : No
Forced                                   : No

Menu
00:00:00.000                             : en:Target
00:08:20.208                             : en:Night's Rest
00:15:40.648                             : en:Hijackers
00:21:36.336                             : en:Stay on the Path
00:27:44.996                             : en:Just a Customer
00:33:24.168                             : en:Look for a Book
00:39:14.518                             : en:Called to Account
00:45:21.885                             : en:Cursed Be the Ground
00:54:17.295                             : en:We're the Future
01:02:05.805                             : en:Not Talking But Sharing
01:11:50.848                             : en:What Kind of Book?
01:20:52.597                             : en:I Love This Guy
01:29:36.412                             : en:Worth the Trouble
01:36:44.048                             : en:Saving Solara
01:41:12.983                             : en:Protected Somehow
01:45:08.552                             : en:Voice in My Head




















:download:

Quote


File Leeched & Uploaded From




Don't walk as you are king, walk as you don't care who the king is....!!
Never argue with an idiot. They drag you down to their level and then beat you with experience?

Share this topic on FacebookShare this topic on GoogleShare this topic on MySpaceShare this topic on TwitterShare this topic on Yahoo




Don't walk as you are king, walk as you don't care who the king is....!!

Tags:
 

Related Topics





Back to top