+ ShareSpark.net »  :::: Dubbed Zone (Dubbed English in Hindi) » TV Shows (Dubbed in Hindi)
|- Wu Assassins S01 Complete 1080p WEBRip x264 Dual Audio [Hindi- English] DD5.1 - ESUBS ~ Ranvijay [Te


Wu Assassins S01 Complete 1080p WEBRip x264 Dual Audio [Hindi- English] DD5.1 - ESUBS ~ Ranvijay [Te

0 Members and 1 Guest are viewing this topic.

August 13, 2019, 08:35:41 AM
  • Legend
  • Legend Member
  • ***
  • Topic Author
  • Thank You: 14097
  • Reputation: 2874
  • Activity:
    59%
  • Country: in
  • Posts: 6151
  • Topics: 5034
  • Join Date: Jan 2014
  • ıllıllı ѕмoĸιng ιѕ good ғor нealтн ıllıllı :)






Wu Assassins S01 Complete 1080p WEBRip x264 Dual Audio [Hindi- English] DD5.1 - ESUBS ~ Ranvijay [Team SSX]

Thanks To Hammer For Hindi Audio


General
Format                                   : Matroska
Format version                           : Version 4 / Version 2
File size                                : 1.10 GiB
Duration                                 : 44 min 7 s
Overall bit rate                         : 3 579 kb/s
Movie name                               : Wu Assassins S01E01 1080p WEBRip x264 Dual Audio [Hindi- English] DD5.1 - ESUBS ~ Ranvijay

Video
ID                                       : 1
Format                                   : AVC
Format/Info                              : Advanced Video Codec
Duration                                 : 44 min 7 s
Bit rate                                 : 3 000 kb/s
Width                                    : 1 920 pixels
Height                                   : 960 pixels
Display aspect ratio                     : 2.000
Frame rate mode                          : Constant
Frame rate                               : 23.976 (24000/1001) FPS
Color space                              : YUV
Chroma subsampling                       : 4:2:0
Bit depth                                : 8 bits
Scan type                                : Progressive
Bits/(Pixel*Frame)                       : 0.068
Stream size                              : 947 MiB (84%)
Title                                    : ~Ranvijay~

Audio #1
ID                                       : 2
Format                                   : AC-3
Format/Info                              : Audio Coding 3
Codec ID                                 : A_AC3
Duration                                 : 44 min 7 s
Bit rate mode                            : Constant
Bit rate                                 : 384 kb/s
Channel(s)                               : 6 channels
Channel positions                        : Front: L C R, Side: L R, LFE
Sampling rate                            : 48.0 kHz
Frame rate                               : 31.250 FPS (1536 SPF)
Bit depth                                : 16 bits
Compression mode                         : Lossy
Stream size                              : 121 MiB (11%)
Title                                    : ~Ranvijay~
Language                                 : Hindi
Service kind                             : Complete Main
Default                                  : Yes
Forced                                   : Yes

Audio #2
ID                                       : 3
Format                                   : AC-3
Format/Info                              : Audio Coding 3
Codec ID                                 : A_AC3
Duration                                 : 44 min 7 s
Bit rate mode                            : Constant
Bit rate                                 : 192 kb/s
Channel(s)                               : 6 channels
Channel positions                        : Front: L C R, Side: L R, LFE
Sampling rate                            : 48.0 kHz
Frame rate                               : 31.250 FPS (1536 SPF)
Bit depth                                : 16 bits
Compression mode                         : Lossy
Stream size                              : 60.6 MiB (5%)
Title                                    : ~Ranvijay~
Language                                 : English
Service kind                             : Complete Main
Default                                  : No
Forced                                   : No

Text #1
ID                                       : 4
Format                                   : UTF-8
Codec ID                                 : S_TEXT/UTF8
Codec ID/Info                            : UTF-8 Plain Text
Duration                                 : 34 min 53 s
Bit rate                                 : 1 b/s
Count of elements                        : 18
Stream size                              : 369 Bytes (0%)
Title                                    : ~Ranvijay~
Language                                 : English
Default                                  : Yes
Forced                                   : Yes

Text #2
ID                                       : 5
Format                                   : UTF-8
Codec ID                                 : S_TEXT/UTF8
Codec ID/Info                            : UTF-8 Plain Text
Duration                                 : 43 min 5 s
Bit rate                                 : 56 b/s
Count of elements                        : 577
Stream size                              : 17.7 KiB (0%)
Title                                    : ~Ranvijay~
Language                                 : English
Default                                  : No
Forced                                   : No

Text #3
ID                                       : 6
Format                                   : UTF-8
Codec ID                                 : S_TEXT/UTF8
Codec ID/Info                            : UTF-8 Plain Text
Duration                                 : 43 min 11 s
Bit rate                                 : 60 b/s
Count of elements                        : 644
Stream size                              : 19.2 KiB (0%)
Title                                    : ~Ranvijay~
Language                                 : English
Default                                  : No
Forced                                   : No















:download:

Quote










File Leeched & Uploaded From




Don't walk as you are king, walk as you don't care who the king is....!!
Never argue with an idiot. They drag you down to their level and then beat you with experience?

Share this topic on FacebookShare this topic on GoogleShare this topic on MySpaceShare this topic on TwitterShare this topic on Yahoo




Don't walk as you are king, walk as you don't care who the king is....!!

Thanks given by:


August 14, 2019, 02:16:07 AM
Reply #1
  • Hero Member
  • ***
  • Thank You: 4
  • Reputation: -5
  • Activity:
    15%
  • Country: pk
  • Posts: 391
  • Topics: 8
  • Join Date: Mar 2013
  • ShareSpark Member

Tags:
 

Related Topics





Back to top