+ ShareSpark.net »  :::: Hollywood Zone » Hollywood Movies (Original Rips) » High Resolution Movies
|- Avengers.Endgame.2019.Hybrid.1080p.BluRay.REMUX.AVC.Atmos-EPSiLON


Avengers.Endgame.2019.Hybrid.1080p.BluRay.REMUX.AVC.Atmos-EPSiLON

0 Members and 1 Guest are viewing this topic.

August 03, 2019, 05:42:37 PM
  • Devoted Member
  • **
  • Topic Author
  • Thank You: 42
  • Reputation: 10
  • Activity:
    3.4%
  • Country: in
  • Posts: 101
  • Topics: 75
  • Join Date: Sep 2017
  • ShareSpark Member
Avengers.Endgame.2019.Hybrid.1080p.BluRay.REMUX.AVC.Atmos-EPSiLON



Ayush Anand Presents

:imdb:


:plot:
Adrift in space with no food or water, Tony Stark sends a message to Pepper Potts as his oxygen supply starts to dwindle. Meanwhile, the remaining Avengers -- Thor, Black Widow, Captain America and Bruce Banner -- must figure out a way to bring back their vanquished allies for an epic showdown with Thanos -- the evil demigod who decimated the planet and the universe.

:info:
File size  : 36.9 GiB
Duration : 3 h 1 min

Video

ID                          : 1
Format                      : AVC
Format/Info                 : Advanced Video Codec
Format profile              : [email protected]
Format settings             : CABAC / 4 Ref Frames
Format settings, CABAC      : Yes
Format settings, ReFrames   : 4 frames
Codec ID                    : V_MPEG4/ISO/AVC
Duration                    : 3 h 1 min
Bit rate mode               : Variable
Bit rate                    : 23.2 Mb/s
Maximum bit rate            : 34.0 Mb/s
Width                       : 1 920 pixels
Height                      : 1 080 pixels
Display aspect ratio        : 16:9
Frame rate mode             : Constant
Frame rate                  : 23.976 (24000/1001) FPS
Color space                 : YUV
Chroma subsampling          : 4:2:0
Bit depth                   : 8 bits
Scan type                   : Progressive
Bits/(Pixel*Frame)          : 0.466
Stream size                 : 29.3 GiB (80%)
Title                       : MPEG-4 AVC Video / 23352 kbps / 1080p / 23.976 fps / 16:9 / High Profile 4.1
Language                    : English
Default                     : Yes
Forced                      : No

Audio #1

ID                          : 2
Format                      : MLP FBA 16-ch
Format/Info                 : Meridian Lossless Packing FBA with 16-channel presentation
Commercial name             : Dolby TrueHD with Dolby Atmos
Codec ID                    : A_TRUEHD
Duration                    : 3 h 1 min
Bit rate mode               : Variable
Bit rate                    : 4 777 kb/s
Maximum bit rate            : 8 430 kb/s
Channel(s)                  : 8 channels
Channel layout              : L R C LFE Ls Rs Lb Rb
Sampling rate               : 48.0 kHz
Frame rate                  : 1 200.000 FPS (40 SPF)
Compression mode            : Lossless
Delay relative to video     : 1 ms
Stream size                 : 6.05 GiB (16%)
Title                       : Dolby TrueHD/Atmos Audio / 7.1 / 48 kHz / 5417 kbps / 24-bit
Language                    : English
Default                     : Yes
Forced                      : No
Number of dynamic objects   : 13
Bed channel count           : 1 channel
Bed channel configuration   : LFE

Audio #2

ID                          : 3
Format                      : AC-3
Format/Info                 : Audio Coding 3
Commercial name             : Dolby Digital
Codec ID                    : A_AC3
Duration                    : 3 h 1 min
Bit rate mode               : Constant
Bit rate                    : 640 kb/s
Channel(s)                  : 6 channels
Channel layout              : L R C LFE Ls Rs
Sampling rate               : 48.0 kHz
Frame rate                  : 31.250 FPS (1536 SPF)
Bit depth                   : 16 bits
Compression mode            : Lossy
Delay relative to video     : 26 ms
Stream size                 : 829 MiB (2%)
Title                       : Compatibility Track / Dolby Digital Audio / 5.1 / 48 kHz / 640 kbps
Language                    : English
Service kind                : Complete Main
Default                     : No
Forced                      : No

Audio #3

ID                          : 4
Format                      : AC-3
Format/Info                 : Audio Coding 3
Commercial name             : Dolby Digital
Codec ID                    : A_AC3
Duration                    : 3 h 1 min
Bit rate mode               : Constant
Bit rate                    : 192 kb/s
Channel(s)                  : 2 channels
Channel layout              : L R
Sampling rate               : 48.0 kHz
Frame rate                  : 31.250 FPS (1536 SPF)
Bit depth                   : 16 bits
Compression mode            : Lossy
Stream size                 : 249 MiB (1%)
Title                       : Commentary by directors Joe Russo and Anthony Russo, and writers Christopher Markus and Stephen McFeely
Language                    : English
Service kind                : Complete Main
Default                     : No
Forced                      : No

Don't forget to thanks author if you download it.

Provided By-
Ayush Anand
 :welcome:

:download:

Share this topic on FacebookShare this topic on GoogleShare this topic on MySpaceShare this topic on TwitterShare this topic on Yahoo

« Last Edit: August 03, 2019, 05:43:53 PM by Pankajmohan11 »



Tags:
 

Related Topics

  Subject / Started by Replies Last post
0 Replies
1103 Views
Last post July 05, 2018, 08:05:35 PM
by Pankajmohan11
0 Replies
289 Views
Last post July 27, 2018, 05:51:53 PM
by ♥ Mann ♥
2 Replies
2443 Views
Last post September 18, 2018, 09:27:42 PM
by topy
5 Replies
1007 Views
Last post August 07, 2019, 10:34:44 PM
by truemate1
1 Replies
725 Views
Last post August 19, 2019, 05:17:29 PM
by vijay565




Back to top