+ ShareSpark.net »  :::: Bollywood Zone » Regional Movies » Bengali Movies
|-  Mukherjee Dar Bou (2019) Bengali Movie - 720p - HDRip[x264 - AAC3(5.1Ch)] - 1.4 GB


10% SBI and 10% Discount

Mukherjee Dar Bou (2019) Bengali Movie - 720p - HDRip[x264 - AAC3(5.1Ch)] - 1.4 GB

0 Members and 1 Guest are viewing this topic.

July 14, 2019, 05:48:21 PM
  • Semi Newbie
  • **
  • Topic Author
  • Thank You: 15
  • Reputation: 4
  • Activity:
    4.8%
  • Country: bd
  • Posts: 35
  • Topics: 35
  • Join Date: Dec 2017
  • ShareSpark Member
       Mukherjee Dar Bou (2019) Bengali Movie - 720p -
 HDRip[x264 - AAC3(5.1Ch)] - 1.4 GB   
 




Code: [Select]
General
Format                                   : Matroska
Format version                           : Version 4
File size                                : 1.40 GiB
Duration                                 : 2 h 20 min

Video
ID                                       : 1
Format                                   : AVC
Format/Info                              : Advanced Video Codec
Format profile                           : [email protected]
Format settings                          : CABAC / 4 Ref Frames
Format settings, CABAC                   : Yes
Format settings, Reference frames        : 4 frames
Codec ID                                 : V_MPEG4/ISO/AVC
Duration                                 : 2 h 20 min
Bit rate                                 : 1 297 kb/s
Width                                    : 1 280 pixels
Height                                   : 544 pixels
Display aspect ratio                     : 2.35:1
Frame rate mode                          : Constant
Frame rate                               : 25.000 FPS
Color space                              : YUV
Chroma subsampling                       : 4:2:0
Bit depth                                : 8 bits
Scan type                                : Progressive
Bits/(Pixel*Frame)                       : 0.075
Stream size                              : 1.27 GiB (91%)

Audio
ID                                       : 2
Format                                   : AAC LC SBR
Commercial name                          : HE-AAC
Format settings                          : Explicit
Codec ID                                 : A_AAC-2
Duration                                 : 2 h 20 min
Bit rate                                 : 128 kb/s
Channel(s)                               : 6 channels
Channel layout                           : C L R Ls Rs LFE
Sampling rate                            : 48.0 kHz
Stream size                              : 129 MiB (9%)
   Thumbnail   








Share this topic on FacebookShare this topic on GoogleShare this topic on MySpaceShare this topic on TwitterShare this topic on Yahoo

« Last Edit: July 14, 2019, 05:50:00 PM by Pherarim »



Tags: drama | family 
 

Related Topics

  Subject / Started by Replies Last post
0 Replies
453 Views
Last post October 11, 2018, 07:08:36 PM
by BUNGILI
0 Replies
500 Views
Last post October 27, 2018, 04:35:08 PM
by BUNGILI
0 Replies
373 Views
Last post December 27, 2018, 07:32:22 PM
by Pherarim
0 Replies
116 Views
Last post July 01, 2019, 01:12:30 AM
by Pherarim
0 Replies
43 Views
Last post July 15, 2019, 09:36:55 PM
by zahidulbd




Back to top