+ ShareSpark.net »  :::: Dubbed Zone (Dubbed English in Hindi) » English Movies Dubbed in Hindi » Animation Movies
|- Lilo And Stitch 2002 x264 720p Dual Audio English Hindi [TEAM BWT] -=!MrSky!=-


10% SBI and 10% Discount

Lilo And Stitch 2002 x264 720p Dual Audio English Hindi [TEAM BWT] -=!MrSky!=-

0 Members and 1 Guest are viewing this topic.

July 05, 2019, 01:36:09 PM
  • Aur Time Well Come
  • Conqueror
  • Legend Member
  • *****
  • Topic Author
  • Thank You: 2123
  • Reputation: 603
  • Activity:
    64.2%
  • Country: pk
  • Posts: 2788
  • Topics: 1986
  • Join Date: Mar 2015
  • =$ Success Never Ends $=
Lilo And Stitch 2002 x264 720p Dual Audio English Hindi  [TEAM BWT] -=!MrSky!=-







Format : Matroska
Format version : Version 4
File size : 604 MiB
Duration : 1 h 25 min
Overall bit rate : 989 kb/s
Movie name : Lilo and Stitch 2002 GOPISAHI

Video
Format : AVC
Format/Info : Advanced Video Codec
Format profile : [email protected]
Codec ID : V_MPEG4/ISO/AVC
Duration : 1 h 25 min
Bit rate : 699 kb/s
Width : 1 210 pixels
Height : 720 pixels
Display aspect ratio : 5:3
Frame rate mode : Constant
Frame rate : 23.976 (24000/1001) FPS
Color space : YUV
Chroma subsampling : 4:2:0
Bit depth : 8 bits
Scan type : Progressive
Bits/(Pixel*Frame) : 0.033
Stream size : 426 MiB (71%)
Title : GOPISAHI
Writing library : x264 core 157 r2935 545de2f

Audio #1
Format : AAC LC
Duration : 1 h 25 min
Bit rate : 96.0 kb/s
Channel(s) : 2 channels
Channel layout : L R
Sampling rate : 48.0 kHz
Frame rate : 46.875 FPS (1024 SPF)
Compression mode : Lossy
Delay relative to video : 999 ms
Stream size : 58.9 MiB (10%)
Title : GOPISAHI
Language : Hindi

Audio #2
Format : AAC LC
Duration : 1 h 25 min
Bit rate : 192 kb/s
Channel(s) : 6 channels
Channel layout : L R C Cb Lb Rb
Sampling rate : 48.0 kHz
Frame rate : 46.875 FPS (1024 SPF)
Compression mode : Lossy
Delay relative to video : -21 ms
Stream size : 117 MiB (19%)
Title : GOPISAHI
Language : English











 :download:




Share this topic on FacebookShare this topic on GoogleShare this topic on MySpaceShare this topic on TwitterShare this topic on Yahoo




Tags:
 

Related Topics





Back to top