+ ShareSpark.net »  :::: Dubbed Zone (Dubbed English in Hindi) » TV Shows (Dubbed in Hindi)
|- What If (2019) S01 Complete 1080p WEB-DL H264 Dual Audio [Hindi DD5.1 - English DDP5.1] - ESUBS ~ Ra


Amazon Fashion
  • What If (2019) S01 Complete 1080p WEB-DL H264 Dual Audio [Hindi DD5.1 - English DDP5.1] - ESUBS ~ Ra 5 1
Currently:  

What If (2019) S01 Complete 1080p WEB-DL H264 Dual Audio [Hindi DD5.1 - English DDP5.1] - ESUBS ~ Ra

0 Members and 1 Guest are viewing this topic.

May 27, 2019, 12:59:05 AM
  • Global Moderator
  • Legend Member
  • *****
  • Topic Author
  • Thank You: 13421
  • Reputation: 2750
  • Activity:
    69.2%
  • Country: in
  • Posts: 6045
  • Topics: 4946
  • Join Date: Jan 2014
  • ıllıllı ѕмoĸιng ιѕ good ғor нealтн ıllıllı :)
What If (2019) S01 Complete 1080p WEB-DL H264 Dual Audio [Hindi DD5.1 - English DDP5.1] - ESUBS ~ Ranvijay



Quote
General
Format                                   : Matroska
Format version                           : Version 4
File size                                : 15.4 MiB
Overall bit rate                         : 4 308 kb/s
Movie name                               : What If (2019) [S01E01] 1080p WEB-DL H264 Dual Audio [Hindi DD5.1 - English DDP5.1] - ESUBS ~ Ranvijay

Video
ID                                       : 1
Format                                   : AVC
Format/Info                              : Advanced Video Codec
Format profile                           : [email protected]
Format settings                          : CABAC / 3 Ref Frames
Format settings, CABAC                   : Yes
Format settings, RefFrames               : 3 frames
Codec ID                                 : V_MPEG4/ISO/AVC
Bit rate mode                            : Variable
Bit rate                                 : 3 024 kb/s
Maximum bit rate                         : 5 220 kb/s
Width                                    : 1 920 pixels
Height                                   : 1 080 pixels
Display aspect ratio                     : 16:9
Frame rate mode                          : Constant
Frame rate                               : 23.976 (24000/1001) FPS
Color space                              : YUV
Chroma subsampling                       : 4:2:0
Bit depth                                : 8 bits
Scan type                                : Progressive
Bits/(Pixel*Frame)                       : 0.061
Stream size                              : 10.8 MiB (70%)
Title                                    : ~Ranvijay~
Default                                  : Yes
Forced                                   : No

Audio #1
ID                                       : 2
Format                                   : AC-3
Format/Info                              : Audio Coding 3
Commercial name                          : Dolby Digital
Codec ID                                 : A_AC3
Bit rate mode                            : Constant
Bit rate                                 : 640 kb/s
Channel(s)                               : 6 channels
Channel layout                           : L R C LFE Ls Rs
Sampling rate                            : 48.0 kHz
Frame rate                               : 31.250 FPS (1536 SPF)
Bit depth                                : 16 bits
Compression mode                         : Lossy
Delay relative to video                  : 18 ms
Stream size                              : 2.29 MiB (15%)
Title                                    : ~Ranvijay~
Language                                 : Hindi
Service kind                             : Complete Main
Default                                  : Yes
Forced                                   : Yes

Audio #2
ID                                       : 3
Format                                   : E-AC-3
Format/Info                              : Enhanced AC-3
Commercial name                          : Dolby Digital Plus
Codec ID                                 : A_EAC3
Bit rate mode                            : Constant
Bit rate                                 : 640 kb/s
Channel(s)                               : 6 channels
Channel layout                           : L R C LFE Ls Rs
Sampling rate                            : 48.0 kHz
Frame rate                               : 31.250 FPS (1536 SPF)
Compression mode                         : Lossy
Delay relative to video                  : 18 ms
Stream size                              : 2.29 MiB (15%)
Title                                    : ~Ranvijay~
Language                                 : English
Service kind                             : Complete Main
Default                                  : No
Forced                                   : No

Text #1
ID                                       : 4
Format                                   : UTF-8
Codec ID                                 : S_TEXT/UTF8
Codec ID/Info                            : UTF-8 Plain Text
Bit rate                                 : 67 b/s
Count of elements                        : 7
Stream size                              : 238 Bytes (0%)
Title                                    : ~Ranvijay~
Language                                 : English
Default                                  : Yes
Forced                                   : Yes

Text #2
ID                                       : 5
Format                                   : UTF-8
Codec ID                                 : S_TEXT/UTF8
Codec ID/Info                            : UTF-8 Plain Text
Bit rate                                 : 67 b/s
Count of elements                        : 7
Stream size                              : 238 Bytes (0%)
Title                                    : ~Ranvijay~
Language                                 : English
Default                                  : No
Forced                                   : No














:download:

Quote
















Rar Link


File Leeched & Uploaded From




Don't walk as you are king, walk as you don't care who the king is....!!
Never argue with an idiot. They drag you down to their level and then beat you with experience?

Share this topic on FacebookShare this topic on GoogleShare this topic on MySpaceShare this topic on TwitterShare this topic on Yahoo

« Last Edit: May 27, 2019, 12:59:58 AM by Rάήνίјάч1234 »



Don't walk as you are king, walk as you don't care who the king is....!!

Thanks given by:


May 27, 2019, 02:36:28 AM
Reply #1
  • Hero Member
  • ***
  • Thank You: 4
  • Reputation: 0
  • Activity:
    10.2%
  • Country: pk
  • Posts: 356
  • Topics: 8
  • Join Date: Mar 2013
  • ShareSpark Member
wow!!!
thanks for sharing
always appreciate dubbed tv seriess..
keep it up and bring more!!!
 :10on10:

June 10, 2019, 03:30:52 PM
Reply #2
  • Semi Newbie
  • **
  • Thank You: 0
  • Reputation: 0
  • Activity:
    3.8%
  • Country: in
  • Posts: 19
  • Topics: 0
  • Join Date: Apr 2019
  • ShareSpark Member
Ranvijay bro
Please upload
Netflix indian tv series
Anjaan special crime unit (2018)

All 65 episodes in 720p

Please bro try for upload this series my humble request.
« Last Edit: June 10, 2019, 03:31:46 PM by Balaram »

Tags:
 

Related Topics





Back to top