+ ShareSpark.net »  :::: Hollywood Zone » TV Shows
|- Game of Thrones S08E01 WEBRip Xvid Ac3 SNAKE


100% Recharge Offer

Game of Thrones S08E01 WEBRip Xvid Ac3 SNAKE

0 Members and 1 Guest are viewing this topic.

April 15, 2019, 08:00:24 AM
  • Admin
  • Legend Member
  • ****
  • Topic Author
  • Thank You: 2519
  • Reputation: 663
  • Activity:
    12.2%
  • Country: in
  • Posts: 3798
  • Topics: 2281
  • Join Date: Dec 2013
  • ShareSpark Member

Game of Thrones S08E01 WEBRip Xvid Ac3 SNAKE
   


Poster


















   
IMDb:


Nine noble families fight for control over the mythical lands of Westeros, while an ancient enemy returns after being dormant for thousands of years.

E01

The Great War has come, the Wall has fallen and the Night King's army of the dead marches towards Westeros. The end is here, but who will take the Iron Throne?



source: Game of Thrones S08E01 Kings Landing 1080p AMZN WEB-DL DD5 1 H264-GoT

General
Format                                   : AVI
Format/Info                              : Audio Video Interleave
File size                                : 656 MiB
Duration                                 : 55 min 45 s
Overall bit rate                         : 1 646 kb/s
Movie name                               : Game of Thrones S08E01 WEBRip Xvid Ac3 SNAKE
Writing application                      : Lavf56.9.100

Video
ID                                       : 0
Format                                   : MPEG-4 Visual
Format profile                           : Advanced [email protected]
Format settings                          : BVOP2
Format settings, BVOP                    : 2
Format settings, QPel                    : No
Format settings, GMC                     : No warppoints
Format settings, Matrix                  : Default (MPEG)
Muxing mode                              : Packed bitstream
Codec ID                                 : XVID
Codec ID/Hint                            : XviD
Duration                                 : 55 min 45 s
Bit rate                                 : 1 187 kb/s
Width                                    : 720 pixels
Height                                   : 404 pixels
Display aspect ratio                     : 16:9
Frame rate                               : 23.976 (24000/1001) FPS
Original frame rate                      : 23.976 (23976/1000) FPS
Color space                              : YUV
Chroma subsampling                       : 4:2:0
Bit depth                                : 8 bits
Scan type                                : Progressive
Compression mode                         : Lossy
Bits/(Pixel*Frame)                       : 0.170
Stream size                              : 473 MiB (72%)
Writing library                          : XviD 64

Audio
ID                                       : 1
Format                                   : AC-3
Format/Info                              : Audio Coding 3
Commercial name                          : Dolby Digital
Codec ID                                 : 2000
Duration                                 : 55 min 45 s
Bit rate mode                            : Constant
Bit rate                                 : 448 kb/s
Channel(s)                               : 6 channels
Channel layout                           : L R C LFE Ls Rs
Sampling rate                            : 48.0 kHz
Frame rate                               : 31.250 FPS (1536 SPF)
Bit depth                                : 16 bits
Compression mode                         : Lossy
Stream size                              : 179 MiB (27%)
Alignment                                : Aligned on interleaves
Interleave, duration                     : 32  ms (0.77 video frame)
Service kind                             : Complete Main


Subtitle: English.srt





All Credit Goes To Original Uploader











Episode 1


      
















Subtitle


      






      
      

Share this topic on FacebookShare this topic on GoogleShare this topic on MySpaceShare this topic on TwitterShare this topic on Yahoo

« Last Edit: April 15, 2019, 08:07:33 AM by тнє ωαll 81317 »



Thanks given by:


April 15, 2019, 11:12:51 AM
Reply #1
  • Devoted Member
  • **
  • Thank You: 66
  • Reputation: 13
  • Activity:
    0.4%
  • Country: in
  • Posts: 122
  • Topics: 28
  • Join Date: Jun 2012
  • ShareSpark Member

June 04, 2019, 08:15:28 PM
Reply #2
  • Semi Newbie
  • **
  • Thank You: 0
  • Reputation: 0
  • Activity:
    0.4%
  • Country: in
  • Posts: 8
  • Topics: 0
  • Join Date: Dec 2013
  • ShareSpark Member
PLSreupload..links are dead....

Tags:
 

Related Topics

  Subject / Started by Replies Last post
0 Replies
860 Views
Last post April 13, 2015, 06:01:21 AM
by ♥[--K4Krish--]♥
1 Replies
1045 Views
Last post April 27, 2016, 05:36:59 PM
by Admin ♥♫
0 Replies
854 Views
Last post May 22, 2016, 09:01:46 PM
by desiest
0 Replies
614 Views
Last post June 13, 2016, 06:39:18 AM
by Deepak Singh Garia
0 Replies
305 Views
Last post May 06, 2019, 07:42:42 AM
by тнє ωαll 81317




Back to top