+ ShareSpark.net »  :::: Dubbed Zone (Dubbed English in Hindi) » English Movies Dubbed in Hindi » Small Size Dubbed Movies
|- The Perfect Date [540p NF DL ENG-HIN DD 5.1] By Rk94


TV and Appliances

The Perfect Date [540p NF DL ENG-HIN DD 5.1] By Rk94

0 Members and 1 Guest are viewing this topic.

April 13, 2019, 07:10:51 PM
  • Newbie
  • **
  • Topic Author
  • Thank You: 0
  • Reputation: 0
  • Activity:
    0.8%
  • Country: in
  • Posts: 4
  • Topics: 1
  • Join Date: Apr 2019
  • ShareSpark Member
Video
ID                          : 1
Format                      : AVC
Format/Info                 : Advanced Video Codec
Format profile              : [email protected]
Format settings             : CABAC / 3 Ref Frames
Format settings, CABAC      : Yes
Format settings, ReFrames   : 3 frames
Codec ID                    : avc1
Codec ID/Info               : Advanced Video Coding
Duration                    : 1 h 30 min
Bit rate                    : 528 kb/s
Width                       : 960 pixels
Height                      : 540 pixels
Display aspect ratio        : 16:9
Frame rate mode             : Constant
Frame rate                  : 23.976 (24000/1001) FPS
Color space                 : YUV
Chroma subsampling          : 4:2:0
Bit depth                   : 8 bits
Scan type                   : Progressive
Bits/(Pixel*Frame)          : 0.042
Stream size                 : 342 MiB (41%)
Codec configuration box     : avcC

Audio #1
ID                          : 2
Format                      : AC-3
Format/Info                 : Audio Coding 3
Commercial name             : Dolby Digital
Codec ID                    : ac-3
Duration                    : 1 h 30 min
Bit rate mode               : Constant
Bit rate                    : 384 kb/s
Channel(s)                  : 6 channels
Channel layout              : L R C LFE Ls Rs
Sampling rate               : 48.0 kHz
Frame rate                  : 31.250 FPS (1536 SPF)
Bit depth                   : 16 bits
Compression mode            : Lossy
Stream size                 : 249 MiB (29%)
Language                    : English
Service kind                : Complete Main
Default                     : Yes
Alternate group             : 1

Audio #2
ID                          : 3
Format                      : AC-3
Format/Info                 : Audio Coding 3
Commercial name             : Dolby Digital
Codec ID                    : ac-3
Duration                    : 1 h 30 min
Bit rate mode               : Constant
Bit rate                    : 384 kb/s
Channel(s)                  : 6 channels
Channel layout              : L R C LFE Ls Rs
Sampling rate               : 48.0 kHz
Frame rate                  : 31.250 FPS (1536 SPF)
Bit depth                   : 16 bits
Compression mode            : Lossy
Stream size                 : 249 MiB (29%)
Language                    : Hindi
Service kind                : Complete Main
Default                     : No
Alternate group             : 1


Link :- Google Drive -

Share this topic on FacebookShare this topic on GoogleShare this topic on MySpaceShare this topic on TwitterShare this topic on Yahoo




Tags:
 

Related Topics

  Subject / Started by Replies Last post
0 Replies
567 Views
Last post February 08, 2016, 10:27:17 PM
by DjiSamSoe
0 Replies
1226 Views
Last post December 04, 2016, 10:28:55 AM
by -Ð@Rk.ÐèVi£-
0 Replies
973 Views
Last post December 04, 2016, 08:42:33 PM
by -Ð@Rk.ÐèVi£-
0 Replies
133 Views
Last post December 02, 2018, 12:52:36 AM
by BaDshaH786
0 Replies
146 Views
Last post December 02, 2018, 02:03:20 AM
by mitsumi




Back to top