+ ShareSpark.net »  :::: Bollywood Zone » Indian PC Videos
|- QAYAMAT SE QAYAMAT TAK (1988) Hindi 1080p Untouched WebHD AVC DDP 5.1 {Music Video} - Team DUS


TV and Appliances
  • QAYAMAT SE QAYAMAT TAK (1988) Hindi 1080p Untouched WebHD AVC DDP 5.1 {Music Video} - Team DUS 3 1
Currently:  

QAYAMAT SE QAYAMAT TAK (1988) Hindi 1080p Untouched WebHD AVC DDP 5.1 {Music Video} - Team DUS

0 Members and 1 Guest are viewing this topic.

March 13, 2019, 08:38:00 PM
  • Conqueror
  • Legend Member
  • *****
  • Topic Author
  • Thank You: 6837
  • Reputation: 1400
  • Activity:
    100%
  • Country: np
  • Posts: 2746
  • Topics: 2148
  • Join Date: Jul 2016
  • *Love Forever*
QAYAMAT SE QAYAMAT TAK (1988) Hindi 1080p Untouched WebHD AVC DDP 5.1 {Music Video} - Team DUS




 :info:
Format                         : Matroska
Format version                 : Version 4
File size                      : 514 MB
Overall bit rate               : 3 759 kb/s
Writing library : libebml v1.3.6 + libmatroska v1.4.9


Video
ID                             : 1
Format                         : AVC
Format/Info                    : Advanced Video Codec
Format profile                 : [email protected]
Format settings                : CABAC / 4 Ref Frames
Format settings, CABAC         : Yes
Format settings, ReFrames      : 4 frames
Format settings, GOP           : M=4, N=50
Codec ID                       : V_MPEG4/ISO/AVC
Bit rate                       : 3 310 kb/s
Width                          : 1 920 pixels
Height                         : 1 080 pixels
Display aspect ratio           : 16:9
Frame rate mode                : Constant
Frame rate                     : 25.000 FPS
Color space                    : YUV
Chroma subsampling             : 4:2:0
Bit depth                      : 8 bits
Scan type                      : Progressive
Bits/(Pixel*Frame)             : 0.064
Stream size                    : 139 MiB (88%)
Default                        : Yes
Forced                         : No


Audio
ID                             : 2
Format                         : E-AC-3
Format/Info                    : Enhanced AC-3
Commercial name                : Dolby Digital Plus
Codec ID                       : A_EAC3
Bit rate mode                  : Constant
Bit rate                       : 448 kb/s
Channel(s)                     : 6 channels
Channel layout                 : L R C LFE Ls Rs
Sampling rate                  : 48.0 kHz
Frame rate                     : 31.250 FPS (1536 SPF)
Compression mode               : Lossy
Stream size                    : 18.7 MiB (12%)
Title                          : Hindi
Language                       : Hindi
Service kind                   : Complete Main
Default                        : Yes
Forced                         : No



 :ss:














 :download:

Share this topic on FacebookShare this topic on GoogleShare this topic on MySpaceShare this topic on TwitterShare this topic on Yahoo



Thanks given by:


March 14, 2019, 08:47:18 AM
Reply #1
  • Elite Forces
  • ****
  • Thank You: 252
  • Reputation: 106
  • Activity:
    1.4%
  • Country: sa
  • Posts: 1192
  • Topics: 136
  • Join Date: Jan 2017
  • ShareSpark Member

Tags:
 

Related Topics

  Subject / Started by Replies Last post
0 Replies
1219 Views
Last post January 15, 2013, 11:55:56 PM
by prins511
2 Replies
1253 Views
Last post September 07, 2015, 08:43:21 AM
by kooolguy
2 Replies
414 Views
Last post March 15, 2019, 02:52:46 AM
by stargator
5 Replies
647 Views
Last post February 01, 2019, 09:45:07 AM
by bonchito
1 Replies
353 Views
Last post February 15, 2019, 01:55:55 PM
by Special26




Back to top