+ ShareSpark.net »  :::: Bollywood Zone » Bollywood Movies (Pre Releases)
|- Badla (2019) 1CD DVDScr x264 (WM-Spam) [700MB]


Mastercard 10% Off

Badla (2019) 1CD DVDScr x264 (WM-Spam) [700MB]

0 Members and 1 Guest are viewing this topic.

March 09, 2019, 10:58:29 PM
  • Team SSX
  • Special Member
  • ***
  • Topic Author
  • Thank You: 132
  • Reputation: 23
  • Activity:
    6%
  • Country: pk
  • Posts: 752
  • Topics: 521
  • Join Date: Nov 2012
  • Upgrade My Reputation






IMDB Rating: 9.1/10 1,280
Code: [Select]
https://www.imdb.com/title/tt8130968/
Description:
Code: [Select]
A dynamic young entrepreneur finds herself locked in a hotel room with the corpse of her dead lover. She hires a prestigious lawyer to defend her and they work together to figure out what actually happened.
Release Info:
Code: [Select]
General
Unique ID                                : 213329103061649358853709135147015900454 (0xA07DB0D59E8316968B0A4854FC948D26)
Complete name                            : Badla.2019.1CD.DVDScr.x264.700MB.mkv
Format                                   : Matroska
Format version                           : Version 4
File size                                : 702 MiB
Duration                                 : 1 h 54 min
Overall bit rate                         : 860 kb/s
Movie name                               : Badla
Encoded date                             : UTC 2019-03-08 19:36:32
Writing application                      : mkvmerge v7.1.0 ('Good Love') 32bit built on Jul 27 2014 12:59:18
Writing library                          : libebml v1.3.0 + libmatroska v1.4.1

Video
ID                                       : 1
Format                                   : AVC
Format/Info                              : Advanced Video Codec
Format profile                           : [email protected]
Format settings                          : CABAC / 4 Ref Frames
Format settings, CABAC                   : Yes
Format settings, ReFrames                : 4 frames
Codec ID                                 : V_MPEG4/ISO/AVC
Duration                                 : 1 h 54 min
Bit rate                                 : 696 kb/s
Width                                    : 688 pixels
Height                                   : 300 pixels
Display aspect ratio                     : 2.25:1
Frame rate mode                          : Constant
Frame rate                               : 30.000 FPS
Color space                              : YUV
Chroma subsampling                       : 4:2:0
Bit depth                                : 8 bits
Scan type                                : Progressive
Bits/(Pixel*Frame)                       : 0.112
Stream size                              : 569 MiB (81%)
Title                                    : Badla
Writing library                          : x264 core 148 r2708 86b7198
Encoding settings                        : cabac=1 / ref=1 / deblock=1:0:0 / analyse=0x1:0x111 / me=hex / subme=2 / psy=1 / psy_rd=1.00:0.00 / mixed_ref=0 / me_range=16 / chroma_me=1 / trellis=0 / 8x8dct=0 / cqm=0 / deadzone=21,11 / fast_pskip=1 / chroma_qp_offset=0 / threads=9 / lookahead_threads=2 / sliced_threads=0 / nr=0 / decimate=1 / interlaced=0 / bluray_compat=0 / constrained_intra=0 / bframes=3 / b_pyramid=2 / b_adapt=1 / b_bias=0 / direct=1 / weightb=1 / open_gop=0 / weightp=1 / keyint=300 / keyint_min=30 / scenecut=40 / intra_refresh=0 / rc_lookahead=10 / rc=abr / mbtree=1 / bitrate=696 / ratetol=1.0 / qcomp=0.60 / qpmin=0 / qpmax=69 / qpstep=4 / vbv_maxrate=20000 / vbv_bufsize=25000 / nal_hrd=none / filler=0 / ip_ratio=1.40 / aq=1:1.00
Language                                 : Hindi
Default                                  : Yes
Forced                                   : No
Color range                              : Limited
Color primaries                          : BT.709
Transfer characteristics                 : BT.709
Matrix coefficients                      : BT.709

Audio
ID                                       : 2
Format                                   : AAC LC
Format/Info                              : Advanced Audio Codec Low Complexity
Codec ID                                 : A_AAC-2
Duration                                 : 1 h 54 min
Bit rate                                 : 160 kb/s
Channel(s)                               : 2 channels
Channel layout                           : L R
Sampling rate                            : 48.0 kHz
Frame rate                               : 46.875 FPS (1024 SPF)
Compression mode                         : Lossy
Delay relative to video                  : -21 ms
Stream size                              : 131 MiB (19%)
Title                                    : Badla
Language                                 : Hindi
Default                                  : Yes
Forced                                   : No

Note : - Watermark Spam in This Movie











Code: [Select]
https://openload.co/f/XR9zTyviOSs

Code: [Select]
https://bdupload.info/sibgh8kfvraz

Code: [Select]
https://uptobox.com/hnsb1q4oiwur/Backup.Badla.2019.1CD.DVDScr.x264.700MB.mkv






Share this topic on FacebookShare this topic on GoogleShare this topic on MySpaceShare this topic on TwitterShare this topic on Yahoo




Tags:
 

Related Topics

  Subject / Started by Replies Last post
0 Replies
112 Views
Last post April 13, 2019, 08:50:55 PM
by Rabasha
1 Replies
468 Views
Last post April 17, 2019, 05:57:07 PM
by Changezi
0 Replies
473 Views
Last post April 16, 2019, 08:58:17 AM
by Rabasha
0 Replies
187 Views
Last post April 19, 2019, 04:58:20 AM
by Rabasha
0 Replies
183 Views
Last post May 04, 2019, 09:46:27 PM
by Rabasha




Back to top