+ ShareSpark.net »  :::: Bollywood Zone » Bollywood Movies (Original Rips)
|- Kashmir Daily (2018) Hindi 720p WEB-DL - x264 - AAC -Sun George


Samsung Galaxy 8

Kashmir Daily (2018) Hindi 720p WEB-DL - x264 - AAC -Sun George

0 Members and 1 Guest are viewing this topic.

March 09, 2019, 01:02:34 PM
  • Aur Time Well Come
  • Conqueror
  • Legend Member
  • *****
  • Topic Author
  • Thank You: 2101
  • Reputation: 598
  • Activity:
    100%
  • Country: pk
  • Posts: 2729
  • Topics: 1952
  • Join Date: Mar 2015
  • =$ Success Never Ends $=
Kashmir Daily (2018) Hindi 720p WEB-DL - x264 - AAC -Sun George











===================================================================



Source : Hon3yhd (Thanks)



General
Format : Matroska
Format version : Version 4
File size : 1.49 GiB
Duration : 2 h 11 min
Overall bit rate : 1 620 kb/s
Movie name : Kashmir Daily (2018) Hindi 720p WEB-DL - x264 - AAC -Sun George



===================================================================



Video
ID : 1
Format : AVC
Format/Info : Advanced Video Codec
Format profile : [email protected]
Format settings : CABAC / 5 Ref Frames
Format settings, CABAC : Yes
Format settings, RefFrames : 5 frames
Codec ID : V_MPEG4/ISO/AVC
Duration : 2 h 11 min
Bit rate : 1 500 kb/s
Width : 1 280 pixels
Height : 720 pixels
Display aspect ratio : 16:9
Frame rate mode : Constant
Frame rate : 24.000 FPS
Color space : YUV
Chroma subsampling : 4:2:0
Bit depth : 8 bits
Scan type : Progressive
Bits/(Pixel*Frame) : 0.068
Stream size : 1.37 GiB (92%)
Title : Sun George



===================================================================



Audio
ID : 2
Format : AAC LC
Format/Info : Advanced Audio Codec Low Complexity
Codec ID : A_AAC-2
Duration : 2 h 11 min
Bit rate : 125 kb/s
Channel(s) : 2 channels
Channel layout : L R
Sampling rate : 48.0 kHz
Frame rate : 46.875 FPS (1024 SPF)
Compression mode : Lossy
Stream size : 118 MiB (8%)
Title : Sun George
Language : Hindi
Default : Yes
Forced : No


















 :download:









Share this topic on FacebookShare this topic on GoogleShare this topic on MySpaceShare this topic on TwitterShare this topic on Yahoo



Thanks given by:


March 14, 2019, 08:35:44 PM
Reply #1
  • Elite Member
  • ***
  • Thank You: 0
  • Reputation: 8
  • Activity:
    14%
  • Country: au
  • Posts: 479
  • Topics: 0
  • Join Date: Oct 2017
  • ShareSpark Member

Tags:
 

Related Topics

  Subject / Started by Replies Last post
0 Replies
276 Views
Last post December 19, 2018, 06:47:17 PM
by shahzaibjaan
0 Replies
612 Views
Last post December 29, 2018, 06:22:29 PM
by Special26
0 Replies
441 Views
Last post February 02, 2019, 08:10:31 PM
by Special26
0 Replies
240 Views
Last post February 14, 2019, 07:41:39 PM
by Special26
0 Replies
175 Views
Last post March 12, 2019, 12:13:12 PM
by shahzaibjaan




Back to top