+ ShareSpark.net »  :::: Bollywood Zone » Bollywood Movies (Original Rips) » TeamSSX Bollywood Releases
|- Julai (2012) WebRip x264 AC3 Hindi Dubbed Exclusive Release By [-=TeamSSX=-]


Julai (2012) WebRip x264 AC3 Hindi Dubbed Exclusive Release By [-=TeamSSX=-]

0 Members and 1 Guest are viewing this topic.

March 09, 2013, 06:01:45 PM
  • Global Mod (Inactive)
  • Royal Member
  • *****
  • Topic Author
  • Thank You: 449
  • Reputation: 197
  • Activity:
    0%
  • Posts: 1099
  • Topics: 534
  • Join Date: Jul 2012
  • ShareSpark Member
Torrable - One stop for all your download & upload needs. It's smart, easy and free.
Julai AKA Dangerous Khiladi (2012) WebRip - x264 - AC3 - Hindi Dubbed - Exclusive Release By [-=TeamSSX=-]

FIRST ON NET -=Exclusive Release By Team SSX=-






Format                                   : Matroska
Format version                           : Version 4 / Version 2
File size                                : 855 MiB
Duration                                 : 2h 6mn
Overall bit rate                         : 944 Kbps
Movie name                               : Julai (2012) WebRip - x264 - AC3 - Hindi Dubbed [-=Team SSX=-]
Encoded date                             : UTC 2013-03-09 03:03:20
Writing application                      : mkvmerge v6.1.0 ('Old Devil') built on Mar  2 2013 14:32:37
Writing library                          : Lavf54.63.100

Video
ID                                       : 1
Format                                   : AVC
Format/Info                              : Advanced Video Codec
Format profile                           : High@L3.2
Format settings, CABAC                   : Yes
Format settings, ReFrames                : 2 frames
Codec ID                                 : V_MPEG4/ISO/AVC
Duration                                 : 2h 6mn
Bit rate                                 : 750 Kbps
Width                                    : 854 pixels
Height                                   : 364 pixels
Display aspect ratio                     : 2.35:1
Frame rate mode                          : Constant
Frame rate                               : 25.000 fps
Color space                              : YUV
Chroma subsampling                       : 4:2:0
Bit depth                                : 8 bits
Scan type                                : Progressive
Bits/(Pixel*Frame)                       : 0.097
Stream size                              : 664 MiB (78%)
Title                                    : [-=TeamSSX=-]
Writing library                          : x264 core 130 r2273
Default                                  : Yes
Forced                                   : No

Audio
ID                                       : 2
Format                                   : AC-3
Format/Info                              : Audio Coding 3
Mode extension                           : CM (complete main)
Format settings, Endianness              : Big
Codec ID                                 : A_AC3
Duration                                 : 2h 6mn
Bit rate mode                            : Constant
Bit rate                                 : 192 Kbps
Channel(s)                               : 2 channels
Channel positions                        : Front: L R
Sampling rate                            : 48.0 KHz
Bit depth                                : 16 bits
Compression mode                         : Lossy
Delay relative to video                  : -5ms
Stream size                              : 174 MiB (20%)
Title                                    : [-=TeamSSX=-]
Language                                 : Hindi
Default                                  : Yes
Forced                                   : No



Code: [Select]
http://datacloud.to/download/9536746a2d/julai-2012-dvdrip-x264-ac3-hindi-dubbed-exclusive-release-by-team-ssx-mkv
Code: [Select]
http://uploadblast.com/s3pzik7ll56j
Code: [Select]
http://muchshare.net/zvkmlmmzem47
Code: [Select]
http://uptobox.com/zn883esmp37h
Code: [Select]
http://extabit.com/file/2a0bf5mxsip5x
Code: [Select]
http://ul.to/xiqsp91t
Code: [Select]
http://www.donevideo.com/2mkns5vonbje
Code: [Select]
http://junocloud.me/wd8md2btf9sd
Code: [Select]
http://www.uploadcore.com/k2litkp4s6kv
Code: [Select]
http://epicshare.net/o9vxw05zk93i
Code: [Select]
http://upafile.com/3ce7qk5qtk8h
Code: [Select]
http://www.putlocker.com/file/2AB7D9D63C08BC90

FRIENDS IT TOOK 10 HRS TO ENCODE & UPLOAD, 30 MIN TO CREATE SCREENSHOT & MEDIA INFOS... AND TAKE FEW SECONDS TO SAY WHOo, THANKS AND REPUTE

Share this topic on FacebookShare this topic on GoogleShare this topic on MySpaceShare this topic on TwitterShare this topic on Yahoo

« Last Edit: March 10, 2013, 01:19:58 PM by choor12ka4 »


Thanks given by:


March 09, 2013, 06:11:46 PM
Reply #1
  • мý αтт¡тυðє - мý l¡fє
  • Global Mod (Inactive)
  • Legend Member
  • *****
  • Thank You: 578
  • Reputation: 301
  • Activity:
    0%
  • Posts: 2030
  • Topics: 324
  • Join Date: Jul 2012
  • ¡ ⓛⓞⓥⓔ ѕнαяєѕραяк.ηєт
 :thanks: :10on10: :goodone: :thread:

++Repu added

feel proud to be a part of [Team SSX]
αlωαýs нαρρy тo нєlρ
мý αтт¡тυðє - мý l¡fє


March 09, 2013, 06:19:18 PM
Reply #2
  • Admin (Inactive)
  • Legend Member
  • ****
  • Thank You: 1346
  • Reputation: 711
  • Activity:
    0%
  • Posts: 2474
  • Topics: 1525
  • Join Date: Jun 2012
  • ShareSpark Member

March 09, 2013, 07:15:31 PM
Reply #3
  • Admin
  • Legend Member
  • ****
  • Thank You: 423
  • Reputation: 435
  • Activity:
    2%
  • Country: in
  • Posts: 2789
  • Topics: 842
  • Join Date: Jan 2011
  • Great Responsibility Comes With Great Power
  • Expertises:
  • Bollywood Movies
  • Dubbed Movies
  • Hollywood Movies
thankx bhai !!
lekin maine ye telgu me download kiya !!

aab hindi me bhi krna padega !!
huh !! koi nhi lekin downloading start

March 10, 2013, 01:05:03 PM
Reply #4
  • Senior Member
  • ***
  • Thank You: 4
  • Reputation: 18
  • Activity:
    0%
  • Country: in
  • Posts: 246
  • Topics: 3
  • Join Date: Feb 2012
  • ShareSpark Member
mere pass koi link kaam nahi kar raha plz upload on putlocker link

 :thanks: in advance

March 10, 2013, 01:11:41 PM
Reply #5
  • Global Mod (Inactive)
  • Royal Member
  • *****
  • Topic Author
  • Thank You: 449
  • Reputation: 197
  • Activity:
    0%
  • Posts: 1099
  • Topics: 534
  • Join Date: Jul 2012
  • ShareSpark Member
mere pass koi link kaam nahi kar raha plz upload on putlocker link

 :thanks: in advance


@nitinjindal98 bro, wait few moments putlocker link will be added very soon...

March 10, 2013, 01:20:46 PM
Reply #6
  • Global Mod (Inactive)
  • Royal Member
  • *****
  • Topic Author
  • Thank You: 449
  • Reputation: 197
  • Activity:
    0%
  • Posts: 1099
  • Topics: 534
  • Join Date: Jul 2012
  • ShareSpark Member

March 10, 2013, 01:22:57 PM
Reply #7
  • Senior Member
  • ***
  • Thank You: 4
  • Reputation: 18
  • Activity:
    0%
  • Country: in
  • Posts: 246
  • Topics: 3
  • Join Date: Feb 2012
  • ShareSpark Member
 2 hours pahle tak uptobox kaam kar rahi thi par ab pata nhi kya ho gaya

even main 10 dino se sirf uptobox se hi dl karta ku kunki or koi link to mere pass  kabhi kaam hi nahi karta

March 10, 2013, 01:24:14 PM
Reply #8
  • Senior Member
  • ***
  • Thank You: 4
  • Reputation: 18
  • Activity:
    0%
  • Country: in
  • Posts: 246
  • Topics: 3
  • Join Date: Feb 2012
  • ShareSpark Member

August 21, 2013, 01:37:36 PM
Reply #9
  • V.I.P.
  • Semi Newbie
  • ***
  • Thank You: 0
  • Reputation: 0
  • Activity:
    0%
  • Posts: 10
  • Topics: 1
  • Join Date: Aug 2013
  • ShareSpark Member

March 29, 2014, 10:00:02 PM
Reply #10
  • Elite Mod (Inactive)
  • Legend Member
  • ****
  • Thank You: 573
  • Reputation: 289
  • Activity:
    0%
  • Country: in
  • Posts: 1665
  • Topics: 577
  • Join Date: Aug 2012
  • ShareSpark Member
  • Expertises:
  • Bollywood Movies
  • Internet Tips & Tricks

Tags:
 

Related Topics





Back to top