+ ShareSpark.net »  :::: Dubbed Zone (Dubbed English in Hindi) » English Movies Dubbed in Hindi
|- The Final Master 2015 x264 720p Esub BluRay Dual Audio English Hindi GOPISAHI


Mastercard 10% Off

The Final Master 2015 x264 720p Esub BluRay Dual Audio English Hindi GOPISAHI

0 Members and 1 Guest are viewing this topic.

February 14, 2019, 04:24:31 PM
  • ***************
  • Conqueror
  • Legend Member
  • *****
  • Topic Author
  • Thank You: 2066
  • Reputation: 588
  • Activity:
    100%
  • Country: pk
  • Posts: 2654
  • Topics: 1883
  • Join Date: Mar 2015
  • =$ Success Never Ends $=
The Final Master 2015 x264 720p Esub BluRay Dual Audio English Hindi GOPISAHI








Format : Matroska
Format version : Version 4 / Version 2
File size : 700 MiB
Duration : 1 h 49 min
Overall bit rate : 894 kb/s
Movie name : The Final Master 2015 GOPISAHI

Video
Format : AVC
Format/Info : Advanced Video Codec
Codec ID : V_MPEG4/ISO/AVC
Duration : 1 h 49 min
Bit rate : 699 kb/s
Width : 1 280 pixels
Height : 528 pixels
Display aspect ratio : 2.40:1
Frame rate mode : Constant
Frame rate : 24.000 FPS
Color space : YUV
Chroma subsampling : 4:2:0
Bit depth : 8 bits
Scan type : Progressive
Bits/(Pixel*Frame) : 0.043
Stream size : 547 MiB (78%)
Title : GOPISAHI
Writing library : x264 core 157 r2935 545de2f

Audio #1
Format : AAC
Duration : 1 h 49 min
Bit rate : 96.0 kb/s
Channel(s) : 2 channels
Channel positions : Front: L R
Sampling rate : 48.0 kHz
Frame rate : 46.875 FPS (1024 SPF)
Compression mode : Lossy
Delay relative to video : -21 ms
Stream size : 75.4 MiB (11%)
Title : GOPISAHI
Language : Hindi

Audio #2
Format : AAC
Duration : 1 h 49 min
Bit rate : 96.0 kb/s
Channel(s) : 2 channels
Channel positions : Front: L R
Sampling rate : 48.0 kHz
Frame rate : 46.875 FPS (1024 SPF)
Compression mode : Lossy
Delay relative to video : -12 ms
Stream size : 75.6 MiB (11%)
Title : GOPISAHI
Language : Chinese

Text
ID : 4
Language : English

Menu
00:00:00.000 : en:00:00:00.000
00:10:07.792 : en:00:10:07.750
00:19:27.208 : en:00:19:27.167
00:32:00.667 : en:00:32:00.542
00:41:15.708 : en:00:41:15.625
00:48:22.458 : en:00:48:22.375
00:59:37.167 : en:00:59:37.083
01:07:42.833 : en:01:07:42.750
01:17:18.667 : en:01:17:18.542
01:26:40.000 : en:01:26:39.875
01:36:54.917 : en:01:36:54.833
01:44:54.292 : en:01:44:54.208





 :ss:










 :download:







Share this topic on FacebookShare this topic on GoogleShare this topic on MySpaceShare this topic on TwitterShare this topic on Yahoo




March 08, 2019, 02:38:42 AM
Reply #1
  • Hot Member
  • ***
  • Thank You: 0
  • Reputation: 3
  • Activity:
    2.6%
  • Posts: 596
  • Topics: 0
  • Join Date: Sep 2012
  • ShareSpark Member

Tags:
 

Related Topics





Back to top