+ ShareSpark.net »  :::: Dubbed Zone (Dubbed English in Hindi) » TV Shows (Dubbed in Hindi)
|- Pokémon Indigo League S01E01 CN Dub 1080p 10 bit Multi Audio [Saon]


Mastercard 10% Off

Pokémon Indigo League S01E01 CN Dub 1080p 10 bit Multi Audio [Saon]

0 Members and 1 Guest are viewing this topic.

January 22, 2019, 05:37:27 PM
  • Begginer
  • **
  • Topic Author
  • Thank You: 10
  • Reputation: 2
  • Activity:
    0.6%
  • Country: in
  • Posts: 92
  • Topics: 4
  • Join Date: Sep 2017
  • ShareSpark Member
Pokémon Indigo League
S01E01
Multi Audio Hindi DD2.0 CN Dub

*** Video
ID                                        :  1
Format                                    :  AVC
Format/Info                               :  Advanced Video Codec
Format profile                            :  [email protected]
Format settings                           :  CABAC / 3 Ref Frames
Format settings, CABAC                    :  Yes
Format settings, ReFrames                 :  3 frames
Codec ID                                  :  V_MPEG4/ISO/AVC
Duration                                  :  22 min 22 s
Bit rate mode                             :  Variable
Bit rate                                  :  3 830 kb/s
Maximum bit rate                          :  5 745 kb/s
Width                                     :  1 440 pixels
Height                                    :  1 080 pixels
Display aspect ratio                      :  4:3
Frame rate mode                           :  Constant
Frame rate                                :  23.976 (24000/1001) FPS
Color space                               :  YUV
Chroma subsampling                        :  4:2:0
Bit depth                                 :  8 bits
Scan type                                 :  Progressive
Bits/(Pixel*Frame)                        :  0.103
Stream size                               :  611 MiB (92%)
Writing library                           :  x264 core 118
Encoding settings                         :  cabac=1 / ref=3 / deblock=1:0:0 / analyse=0x1:0x111 / me=umh / subme=10 / psy=1 / psy_rd=1.00:0.00 / mixed_ref=1 / me_range=24 / chroma_me=1 / trellis=2 / 8x8dct=0 / cqm=0 / deadzone=21,11 / fast_pskip=1 / chroma_qp_offset=-2 / threads=8 / sliced_threads=0 / nr=0 / decimate=1 / interlaced=0 / bluray_compat=0 / constrained_intra=0 / bframes=2 / b_pyramid=0 / b_adapt=2 / b_bias=0 / direct=3 / weightb=1 / open_gop=0 / weightp=2 / keyint=48 / keyint_min=25 / scenecut=0 / intra_refresh=0 / rc_lookahead=0 / rc=2pass / mbtree=1 / bitrate=3830 / ratetol=1.0 / qcomp=0.50 / qpmin=6 / qpmax=51 / qpstep=4 / cplxblur=20.0 / qblur=0.5 / vbv_maxrate=5745 / vbv_bufsize=7660 / nal_hrd=vbr / ip_ratio=1.40 / aq=1:1.00
Default                                   :  Yes
Forced                                    :  No

*** Audio #1
ID                                        :  2
Format                                    :  E-AC-3
Format/Info                               :  Enhanced AC-3
Commercial name                           :  Dolby Digital Plus
Codec ID                                  :  A_EAC3
Duration                                  :  22 min 23 s
Bit rate mode                             :  Constant
Bit rate                                  :  128 kb/s
Channel(s)                                :  2 channels
Channel layout                            :  L R
Sampling rate                             :  48.0 kHz
Frame rate                                :  31.250 FPS (1536 SPF)
Compression mode                          :  Lossy
Stream size                               :  20.5 MiB (3%)
Title                                     :  English [Saon]
Language                                  :  English
Service kind                              :  Complete Main
Default                                   :  Yes
Forced                                    :  No

*** Audio #2
ID                                        :  4
Format                                    :  AC-3
Format/Info                               :  Audio Coding 3
Commercial name                           :  Dolby Digital
Codec ID                                  :  A_AC3
Duration                                  :  22 min 23 s
Bit rate mode                             :  Constant
Bit rate                                  :  192 kb/s
Channel(s)                                :  2 channels
Channel layout                            :  L R
Sampling rate                             :  48.0 kHz
Frame rate                                :  31.250 FPS (1536 SPF)
Bit depth                                 :  16 bits
Compression mode                          :  Lossy
Stream size                               :  30.7 MiB (5%)
Title                                     :  Hindi [Saon]
Language                                  :  Hindi
Service kind                              :  Complete Main
Default                                   :  No
Forced                                    :  No

*** Text
ID                                        :  3
Format                                    :  UTF-8
Codec ID                                  :  S_TEXT/UTF8
Codec ID/Info                             :  UTF-8 Plain Text
Duration                                  :  20 min 5 s
Bit rate                                  :  75 b/s
Count of elements                         :  332
Stream size                               :  11.1 KiB (0%)
Title                                     :  English [SDH] [Saon]
Language                                  :  English
Default                                   :  No
Forced                                    :  No

If you like my work then comments.I'll upload more episodes

Share this topic on FacebookShare this topic on GoogleShare this topic on MySpaceShare this topic on TwitterShare this topic on Yahoo

« Last Edit: January 22, 2019, 05:38:49 PM by saon »


Thanks given by:


January 29, 2019, 03:05:59 PM
Reply #1
  • Semi Newbie
  • **
  • Thank You: 47
  • Reputation: 4
  • Activity:
    0.8%
  • Country: in
  • Posts: 22
  • Topics: 8
  • Join Date: Feb 2014
  • ShareSpark Member

January 31, 2019, 02:24:25 PM
Reply #2
  • Newbie
  • **
  • Thank You: 0
  • Reputation: 0
  • Activity:
    0.2%
  • Country: in
  • Posts: 1
  • Topics: 0
  • Join Date: May 2018
  • ShareSpark Member
Thanks for this one  :thank:
It would be Great if you continue this Show as there  aren't any CN Dubbed Episodes available
 :rep:

February 16, 2019, 12:41:42 AM
Reply #3
  • Semi Newbie
  • **
  • Thank You: 0
  • Reputation: 0
  • Activity:
    1.4%
  • Country: bd
  • Posts: 36
  • Topics: 0
  • Join Date: Apr 2018
  • ShareSpark Member
Horrible dub. Hungama dub was like infinitely times better than this one.

Tags:
 

Related Topics





Back to top