+ ShareSpark.net »  :::: Bollywood Zone » Bollywood Movies (Original Rips) » HEVC / H.265 Releases
|- Vicky Donor (2012) (1080p BluRay x265 HEVC 10bit AAC 5.1 Hindi Natty) [QxR]


100% Bill Offer

Vicky Donor (2012) (1080p BluRay x265 HEVC 10bit AAC 5.1 Hindi Natty) [QxR]

0 Members and 1 Guest are viewing this topic.

January 11, 2019, 06:00:18 PM
  • Conqueror
  • Legend Member
  • *****
  • Topic Author
  • Thank You: 5145
  • Reputation: 1077
  • Activity:
    100%
  • Country: np
  • Posts: 1774
  • Topics: 1526
  • Join Date: Jul 2016
  • Love Forever !!
Vicky Donor (2012) (1080p BluRay x265 HEVC 10bit AAC 5.1 Hindi Natty) [QxR]




 :info:
Source : Vicky.Donor.•.2012.•.BD50.•.Untouched.BluRay.•.DRs
Format                                   : Matroska
Format version                           : Version 4 / Version 2
File size                                : 3.23 GiB
Duration                                 : 2 h 5 min
Overall bit rate                         : 3 690 kb/s


Video
ID                                       : 1
Format                                   : HEVC
Format/Info                              : High Efficiency Video Coding
Format profile                           : Main [email protected]@Main
Codec ID                                 : V_MPEGH/ISO/HEVC
Duration                                 : 2 h 5 min
Bit rate                                 : 3 170 kb/s
Width                                    : 1 920 pixels
Height                                   : 816 pixels
Display aspect ratio                     : 2.35:1
Frame rate mode                          : Constant
Frame rate                               : 24.000 FPS
Color space                              : YUV
Chroma subsampling                       : 4:2:0
Bit depth                                : 10 bits
Bits/(Pixel*Frame)                       : 0.084
Stream size                              : 2.78 GiB (86%)


Audio
ID                                       : 2
Format                                   : AAC
Format/Info                              : Advanced Audio Codec
Format profile                           : LC
Codec ID                                 : A_AAC
Duration                                 : 2 h 5 min
Bit rate                                 : 488 kb/s
Channel(s)                               : 6 channels
Channel positions                        : Front: L C R, Side: L R, LFE
Sampling rate                            : 48.0 kHz
Frame rate                               : 46.875 FPS (1024 spf)
Compression mode                         : Lossy
Delay relative to video                  : 20 ms
Stream size                              : 438 MiB (13%)
Language                                 : Hindi
Default                                  : No
Forced                                   : No

Subtitle #1
ID                                       : 3
Format                                   : PGS
Muxing mode                              : zlib
Codec ID                                 : S_HDMV/PGS
Codec ID/Info                            : Picture based subtitle format used on BDs/HD-DVDs
Duration                                 : 2 h 1 min
Bit rate                                 : 41.2 kb/s
Count of elements                        : 4278
Stream size                              : 35.8 MiB (1%)
Language                                 : English
Default                                  : Yes
Forced                                   : No

Subtitle #2
ID                                       : 4
Format                                   : PGS
Muxing mode                              : zlib
Codec ID                                 : S_HDMV/PGS
Codec ID/Info                            : Picture based subtitle format used on BDs/HD-DVDs
Duration                                 : 2 h 1 min
Bit rate                                 : 24.4 kb/s
Count of elements                        : 4278
Stream size                              : 21.2 MiB (1%)
Language                                 : Arabic
Default                                  : No
Forced                                   : No

Menu
00:00:00.000                             : en:Chapter 01
00:05:35.125                             : en:Chapter 02
00:22:09.000                             : en:Chapter 03
00:35:34.375                             : en:Chapter 04
00:37:22.500                             : en:Chapter 05
00:50:07.750                             : en:Chapter 06
00:52:46.416                             : en:Chapter 07
00:55:55.875                             : en:Chapter 08
00:58:01.666                             : en:Chapter 09
01:07:18.125                             : en:Chapter 10
01:10:17.500                             : en:Chapter 11
01:21:14.541                             : en:Chapter 12
01:23:51.291                             : en:Chapter 13
01:25:15.541                             : en:Chapter 14
01:26:41.375                             : en:Chapter 15
01:35:16.291                             : en:Chapter 16
01:39:37.333                             : en:Chapter 17
01:40:42.541                             : en:Chapter 18
01:43:20.958                             : en:Chapter 19
01:55:03.250                             : en:Chapter 20
01:57:00.250                             : en:Chapter 21
02:01:49.333                             : en:Chapter 22



 :ss:





 :download:

Share this topic on FacebookShare this topic on GoogleShare this topic on MySpaceShare this topic on TwitterShare this topic on Yahoo




Tags:
 

Related Topics

  Subject / Started by Replies Last post
1 Replies
1168 Views
Last post March 07, 2018, 09:46:56 AM
by Special26
0 Replies
390 Views
Last post April 13, 2018, 10:05:07 AM
by UnikAaYush
1 Replies
250 Views
Last post January 03, 2019, 08:27:42 PM
by devil001
0 Replies
127 Views
Last post January 07, 2019, 04:31:52 PM
by Special26
0 Replies
210 Views
Last post January 07, 2019, 05:15:48 PM
by Special26




Back to top