+ ShareSpark.net »  :::: Bollywood Zone » Indian PC Videos
|- Phir Bhi Dil Hai Hindustani (2000) Hindi 1080p Untouched Webhd AVC {Music Video} ~ Special26


Amazon Pantry Offer

Phir Bhi Dil Hai Hindustani (2000) Hindi 1080p Untouched Webhd AVC {Music Video} ~ Special26

0 Members and 1 Guest are viewing this topic.

December 06, 2018, 07:23:45 PM
  • Team SSX
  • Legend Member
  • ***
  • Topic Author
  • Thank You: 4585
  • Reputation: 1004
  • Activity:
    100%
  • Country: np
  • Posts: 1538
  • Topics: 1334
  • Join Date: Jul 2016
  • Love Forever !!
Phir Bhi Dil Hai Hindustani (2000) Hindi 1080p Untouched Webhd AVC {Music Video} ~ Special26



 :info:
Format                         : Matroska
Format version                 : Version 4
File size                      : 1.37 GB
Overall bit rate mode          : Variable
Overall bit rate               : 7 296 kb/s


Video
ID                             : 1
Format                         : AVC
Format/Info                    : Advanced Video Codec
Format profile                 : [email protected]
Format settings                : CABAC / 3 Ref Frames
Format settings, CABAC         : Yes
Format settings, ReFrames      : 3 frames
Codec ID                       : V_MPEG4/ISO/AVC
Bit rate mode                  : Variable
Bit rate                       : 6 653 kb/s
Maximum bit rate               : 10.7 Mb/s
Width                          : 1 920 pixels
Height                         : 1 080 pixels
Display aspect ratio           : 16:9
Frame rate mode                : Constant
Frame rate                     : 25.000 FPS
Color space                    : YUV
Chroma subsampling             : 4:2:0
Bit depth                      : 8 bits
Scan type                      : Progressive
Bits/(Pixel*Frame)             : 0.128
Stream size                    : 160 MiB (91%)
Default                        : Yes
Forced                         : No


Audio
ID                             : 2
Format                         : E-AC-3
Format/Info                    : Enhanced AC-3
Commercial name                : Dolby Digital Plus
Codec ID                       : A_EAC3
Bit rate mode                  : Constant
Bit rate                       : 640 kb/s
Channel(s)                     : 6 channels
Channel layout                 : L R C LFE Ls Rs
Sampling rate                  : 48.0 kHz
Frame rate                     : 31.250 FPS (1536 SPF)
Compression mode               : Lossy
Stream size                    : 15.4 MiB (9%)
Service kind                   : Complete Main
Default                        : Yes
Forced                         : No



 :ss:




















 :download:

Share this topic on FacebookShare this topic on GoogleShare this topic on MySpaceShare this topic on TwitterShare this topic on Yahoo



Thanks given by:


Tags:
 

Related Topics

  Subject / Started by Replies Last post
2 Replies
1424 Views
Last post March 27, 2018, 12:25:38 AM
by bikash0096
2 Replies
495 Views
Last post November 29, 2018, 06:14:33 AM
by gprem54
5 Replies
512 Views
Last post December 02, 2018, 08:41:18 AM
by Special26
0 Replies
235 Views
Last post November 30, 2018, 11:07:08 AM
by Special26
0 Replies
222 Views
Last post December 07, 2018, 08:25:50 PM
by Special26




Back to top