+ ShareSpark.net »  :::: Bollywood Zone » Bollywood Movies (Original Rips) » High Resolution Movies
|- Aarzoo(1999) Movie 1080p HDRIP 7.1 DTS Audio


100% Recharge Offer

Aarzoo(1999) Movie 1080p HDRIP 7.1 DTS Audio

0 Members and 1 Guest are viewing this topic.

November 08, 2018, 07:47:38 PM
  • Newbie
  • **
  • Topic Author
  • Thank You: 7
  • Reputation: 0
  • Activity:
    1.8%
  • Country: in
  • Posts: 3
  • Topics: 2
  • Join Date: Oct 2018
  • ShareSpark Member
Aarzoo(1999) Movie 1080p HDRIP 7.1 DTS Audio



General
Complete name                            : Aarzoo(1999) Movie 1080p HDRIP 7.1 DTS Audio
Format                                   : MPEG-4
Format profile                           : Base Media / Version 2
Codec ID                                 : mp42 (isom/mp42)
File size                                : 4.55 GiB
Duration                                 : 2 h 39 min
Overall bit rate mode                    : Variable
Overall bit rate                         : 4 093 kb/s
Encoded date                             : UTC 2018-10-01 09:22:02
Tagged date                              : UTC 2018-10-01 09:22:02

Video
ID                                       : 1
Format                                   : AVC
Format/Info                              : Advanced Video Codec
Format profile                           : [email protected]
Format settings                          : CABAC / 3 Ref Frames
Format settings, CABAC                   : Yes
Format settings, RefFrames               : 3 frames
Codec ID                                 : avc1
Codec ID/Info                            : Advanced Video Coding
Duration                                 : 2 h 39 min
Bit rate mode                            : Constant
Bit rate                                 : 3 000 kb/s
Width                                    : 1 920 pixels
Height                                   : 1 080 pixels
Display aspect ratio                     : 16:9
Frame rate mode                          : Constant
Frame rate                               : 25.000 FPS
Standard                                 : NTSC
Color space                              : YUV
Chroma subsampling                       : 4:2:0
Bit depth                                : 8 bits
Scan type                                : Progressive
Bits/(Pixel*Frame)                       : 0.058
Stream size                              : 3.33 GiB (73%)
Language                                 : English
Encoded date                             : UTC 2018-10-01 09:22:03
Tagged date                              : UTC 2018-10-01 09:22:03
Color range                              : Full
Color primaries                          : BT.709
Transfer characteristics                 : BT.709
Matrix coefficients                      : BT.709

Audio
ID                                       : 2
Format                                   : DTS
Format/Info                              : Digital Theater Systems
Codec ID                                 : dtsh
Codec ID/Info                            : Digital Theater Systems High Res
Codec ID/Hint                            : HRA
Duration                                 : 2 h 39 min
Bit rate mode                            : Variable
Bit rate                                 : 1 089 kb/s
Maximum bit rate                         : 1 254 kb/s
Channel positions                        : Front: L C R, Side: L R, Back: C, High: C, LFE / Front: L C R, Side: L R
Sampling rate                            : 48.0 kHz
Bit depth                                : 16 bits
Compression mode                         : Lossy
Stream size                              : 1.21 GiB (27%)
Language                                 : English
Encoded date                             : UTC 2018-10-01 09:22:03
Tagged date                              : UTC 2018-10-01 09:22:03

















Share this topic on FacebookShare this topic on GoogleShare this topic on MySpaceShare this topic on TwitterShare this topic on Yahoo

« Last Edit: November 08, 2018, 07:50:55 PM by Digital Plex Media »


Thanks given by:


November 08, 2018, 09:00:00 PM
Reply #1
  • Hot Member
  • ***
  • Thank You: 25
  • Reputation: 8
  • Activity:
    4.4%
  • Country: bd
  • Posts: 603
  • Topics: 12
  • Join Date: Jun 2017
  • ShareSpark Member

November 08, 2018, 09:58:31 PM
Reply #2
  • Newbie
  • **
  • Topic Author
  • Thank You: 7
  • Reputation: 0
  • Activity:
    1.8%
  • Country: in
  • Posts: 3
  • Topics: 2
  • Join Date: Oct 2018
  • ShareSpark Member

 

Related Topics

  Subject / Started by Replies Last post
0 Replies
867 Views
Last post January 23, 2013, 08:33:05 PM
by sundarmobiles
0 Replies
692 Views
Last post July 28, 2014, 11:20:35 AM
by -Ð@Rk.ÐèVi£-
1 Replies
742 Views
Last post June 09, 2015, 08:11:33 PM
by cool dude
0 Replies
581 Views
Last post June 09, 2015, 02:52:08 PM
by rflxn143
7 Replies
1555 Views
Last post October 06, 2018, 01:27:16 AM
by Rakesh005




Back to top