+ ShareSpark.net »  :::: Bollywood Zone » Indian PC Videos
|- Aashiqui (1990) (MUSIC VIDEO ALBUM) Untouched - BD50 DTS-HDMA 5.1 ESuBS By ~MaLiK ZEE~


10% SBI and 10% Discount
  • Aashiqui (1990) (MUSIC VIDEO ALBUM) Untouched - BD50 DTS-HDMA 5.1 ESuBS By ~MaLiK ZEE~ 5 1
Currently:  

Aashiqui (1990) (MUSIC VIDEO ALBUM) Untouched - BD50 DTS-HDMA 5.1 ESuBS By ~MaLiK ZEE~

0 Members and 1 Guest are viewing this topic.

November 01, 2018, 09:48:32 AM
Aashiqui (1990) (MUSIC VIDEO ALBUM) Untouched - BD50 DTS-HDMA 5.1 ESuBS By ~MaLiK ZEE~


~♥ BollyWooD MoviE ♥~
(Aashiqui 1990)

Quote

Specs ♪♫
General
ID                          : 0 (0x0)
Format                      : BDAV
Format                      : M2ts
Format/Info                 : Blu-ray Video
File size                   : 10.5 GB
Duration                    : 5 min 21 s
Overall bit rate mode       : Variable
Overall bit rate            : 30.3 Mb/s
Maximum Overall bit rate    : 48.0 Mb/s

♪ Video ♪
ID                          : 4113 (0x1011)
Menu ID                     : 1 (0x1)
Format                      : AVC
Format/Info                 : Advanced Video Codec
Format profile              : [email protected]
Format settings             : CABAC / 4 Ref Frames
Format settings, CABAC      : Yes
Format settings, ReFrames   : 4 frames
Codec ID                    : 27
Bit rate mode               : Variable
Bit rate                    : 26.9 Mb/s
Maximum bit rate            : 35.0 Mb/s
Width                       : 1 920 pixels
Height                      : 1 080 pixels
Display aspect ratio        : 16:9
Frame rate                  : 24.000 FPS
Standard                    : NTSC
Color space                 : YUV
Chroma subsampling          : 4:2:0
Bit depth                   : 8 bits
Scan type                   : Progressive
Bits/(Pixel*Frame)          : 0.540
Stream size                 : 1.00 GiB (89%)
Color range                 : Limited
Color primaries             : BT.709
Transfer characteristics    : BT.709
Matrix coefficients         : BT.709

♫ Audio ♫

Audio #1
ID                          : 4352 (0x1100)
Menu ID                     : 1 (0x1)
Format                      : PCM
Format settings             : Big / Signed
Muxing mode                 : Blu-ray
Codec ID                    : 128
Bit rate mode               : Constant
Bit rate                    : 1 536 kb/s
Channel(s)                  : 2 channels
Channel positions           : Front: L R
Sampling rate               : 48.0 kHz
Bit depth                   : 16 bits
Stream size                 : 58.8 MiB (5%)

Audio #2
ID                          : 4353 (0x1101)
Menu ID                     : 1 (0x1)
Format                      : AC-3
Format/Info                 : Audio Coding 3
Codec ID                    : 129
Bit rate mode               : Constant
Bit rate                    : 640 kb/s
Channel(s)                  : 6 channels
Channel positions           : Front: L C R, Side: L R, LFE
Sampling rate               : 48.0 kHz
Frame rate                  : 31.250 FPS (1536 SPF)
Bit depth                   : 16 bits
Compression mode            : Lossy
Stream size                 : 24.5 MiB (2%)
Service kind                : Complete Main

♫ Subtitles ♫
Text
ID                          : 4608 (0x1200)
Menu ID                     : 1 (0x1)
Format                      : PGS
Codec ID                    : 144
Language                    : English


Ripped By ~MaLiK ZEE~

 :ss:








































 :download:

Google Drive

Quote
01-Saanson Ki Zaroorat 1 [By ~MaLiK ZEE~]

02-Dheere Dheere Se [By ~MaLiK ZEE~]

03-Tu Meri Zindagi Hai [By ~MaLiK ZEE~]

04-Mein Duniya Bhuladunga [By ~MaLiK ZEE~]

05-Jaane Jiger Jaaneman 1 [By ~MaLiK ZEE~]

06-Jaane Jiger Jaaneman 2 [By ~MaLiK ZEE~]

07-Nazar Ke Saamne [By ~MaLiK ZEE~]

08-Mera Dil [By ~MaLiK ZEE~]

09-Ab Tere Bin Jee Lenge Hum [By ~MaLiK ZEE~]

10-Saanson Ki Zaroorat 2 [By ~MaLiK ZEE~]

11-Saanson Ki Zaroorat End Roll




Share this topic on FacebookShare this topic on GoogleShare this topic on MySpaceShare this topic on TwitterShare this topic on Yahoo



Thanks given by:


November 01, 2018, 03:57:11 PM
Reply #1
  • Semi Newbie
  • **
  • Thank You: 0
  • Reputation: 0
  • Activity:
    5%
  • Posts: 29
  • Topics: 0
  • Join Date: Mar 2013
  • ShareSpark Member
Bringing the Old Memories Back !
Thank You So Much Bro for posting this lovely Release.
It was missing in my collection.

November 01, 2018, 11:13:10 PM
Reply #2
  • Semi Newbie
  • **
  • Thank You: 0
  • Reputation: 0
  • Activity:
    4.4%
  • Country: in
  • Posts: 25
  • Topics: 0
  • Join Date: Jun 2017
  • ShareSpark Member
« Last Edit: November 01, 2018, 11:17:03 PM by MADHURINKU »

November 01, 2018, 11:15:25 PM
Reply #3
  • Semi Newbie
  • **
  • Thank You: 0
  • Reputation: 0
  • Activity:
    4.4%
  • Country: in
  • Posts: 25
  • Topics: 0
  • Join Date: Jun 2017
  • ShareSpark Member
Jaan Tere Naam (1992) (MUSIC VIDEO ALBUM) Untouched - BD50 DTS-HDMA 5.1 ESub.....You have so plz plz plz plz plz Upload....ThankQ

November 02, 2018, 02:43:54 AM
Reply #4
  • Semi Newbie
  • **
  • Thank You: 0
  • Reputation: 0
  • Activity:
    5%
  • Posts: 29
  • Topics: 0
  • Join Date: Mar 2013
  • ShareSpark Member
@MADHURINKU
JAAN TERE NAAM - Not released in BluRay .
Its best version of music videos available on ULTRA HINDI Youtube Channel.
You can go to their channel and find JAAN TERE NAAM ALL SONGS in 4K Quality
which is superb.


Here is the Youtube Playlist for your assistance.
[/b][/color]

November 02, 2018, 08:28:15 AM
Reply #5
  • Semi Newbie
  • **
  • Thank You: 0
  • Reputation: 0
  • Activity:
    7.6%
  • Country: in
  • Posts: 40
  • Topics: 0
  • Join Date: Jun 2018
  • ShareSpark Member
please upload-

Mr. India 1987 Music Videos Untouched - BD50 DTS-HDMA 5.1

November 03, 2018, 06:25:20 PM
Reply #6
  • Newbie
  • **
  • Thank You: 0
  • Reputation: 0
  • Activity:
    0.8%
  • Country: in
  • Posts: 3
  • Topics: 0
  • Join Date: Oct 2018
  • ShareSpark Member
maine download kiye ye songs par 1/1GB size ke hisaab se picture quality itni achchi nahin hai.
iske liye kya video player badlnaa padega.

Tags: inform 
 

Related Topics





Back to top