+ ShareSpark.net »  :::: Bollywood Zone » Indian PC Videos
|- RAid (2018) (MUSIC VIDEO ALBUM) 1080p Blu-ray x264 DTS-HDMA 5.1 ESuBS By ~MaLiK ZEE~


100% DTH Offer

RAid (2018) (MUSIC VIDEO ALBUM) 1080p Blu-ray x264 DTS-HDMA 5.1 ESuBS By ~MaLiK ZEE~

0 Members and 1 Guest are viewing this topic.

October 30, 2018, 04:50:31 AM
RAid (2018) (MUSIC VIDEO ALBUM) 1080p Blu-ray x264 DTS-HDMA 5.1 ESuBS By ~MaLiK ZEE~


~♥ BollyWooD MoviE ♥~
(RAid 2018)

Quote

Specs ♪♫
General
Format                      : Matroska
Format version              : Version 4 / Version 2
File size                   : 1.21 GB
Overall bit rate            : 10.2 Mb/s
Encoded date                : UTC 2018-10-29 06:11:27
Writing application         : mkvmerge v25.0.0 ('Prog Noir') 64-bit
Writing library             : libebml v1.3.6 + libmatroska v1.4.9

♪ Video ♪
ID                          : 1
Format                      : AVC
Format/Info                 : Advanced Video Codec
Format profile              : [email protected]
Format settings             : CABAC / 5 Ref Frames
Format settings, CABAC      : Yes
Format settings, ReFrames   : 5 frames
Codec ID                    : V_MPEG4/ISO/AVC
Bit rate                    : 4 904 kb/s
Width                       : 1 920 pixels
Height                      : 808 pixels
Display aspect ratio        : 2.40:1
Frame rate mode             : Constant
Frame rate                  : 24.000 FPS
Color space                 : YUV
Chroma subsampling          : 4:2:0
Bit depth                   : 8 bits
Scan type                   : Progressive
Bits/(Pixel*Frame)          : 0.132
Stream size                 : 81.0 MiB (48%)
Default                     : Yes
Forced                      : No
Color range                 : Limited
Color primaries             : BT.709
Transfer characteristics    : BT.709
Matrix coefficients         : BT.709

♫ Audio ♫
Audio #1
ID                          : 2
Format                      : DTS
Format/Info                 : Digital Theater Systems
Format profile              : MA / Core
Codec ID                    : A_DTS
Bit rate mode               : Variable / Constant
Bit rate                    : 4 633 kb/s / 1 509 kb/s
Channel(s)                  : 6 channels
Channel positions           : Front: L C R, Side: L R, LFE
Sampling rate               : 48.0 kHz
Frame rate                  : 93.750 FPS (512 SPF)
Bit depth                   : 24 bits
Compression mode            : Lossless / Lossy
Delay relative to video     : -1 ms
Stream size                 : 76.5 MiB (45%)
Title                       : DTS-HDMA 5.1.......By ~MaLiK ZEE~
Language                    : Hindi
Default                     : Yes
Forced                      : No

Audio #2
ID                          : 3
Format                      : AC-3
Format/Info                 : Audio Coding 3
Codec ID                    : A_AC3
Bit rate mode               : Constant
Bit rate                    : 640 kb/s
Channel(s)                  : 6 channels
Channel positions           : Front: L C R, Side: L R, LFE
Sampling rate               : 48.0 kHz
Frame rate                  : 31.250 FPS (1536 SPF)
Bit depth                   : 16 bits
Compression mode            : Lossy
Delay relative to video     : -1 ms
Stream size                 : 10.6 MiB (6%)
Title                       : AC-3.......By ~MaLiK ZEE~
Language                    : Hindi
Service kind                : Complete Main
Default                     : No
Forced                      : No

♫ Subtitles ♫

Text #1
ID                          : 4
Format                      : PGS
Muxing mode                 : zlib
Codec ID                    : S_HDMV/PGS
Codec ID/Info               : Picture based subtitle format used on BDs/HD-DVDs
Bit rate                    : 38.5 kb/s
Count of elements           : 56
Stream size                 : 549 KiB (0%)
Title                       : By ~MaLiK ZEE~
Language                    : English
Default                     : Yes
Forced                      : Yes

Text #2
ID                          : 5
Format                      : PGS
Muxing mode                 : zlib
Codec ID                    : S_HDMV/PGS
Codec ID/Info               : Picture based subtitle format used on BDs/HD-DVDs
Bit rate                    : 21.1 kb/s
Count of elements           : 57
Stream size                 : 301 KiB (0%)
Title                       : By ~MaLiK ZEE~
Language                    : Arabic
Default                     : No
Forced                      : No

Ripped By ~MaLiK ZEE~

 :ss:






















 :download:

Google Drive

Quote
01-Nit Khair Manga [By ~MaLiK ZEE~]

02-Sanu Ek Pal Chain [By ~MaLiK ZEE~]

03-Black Jama Hai [By ~MaLiK ZEE~]

04-Jhuk Na Paunga [By ~MaLiK ZEE~]

05-Jhuk Na Paunga End Roll [By ~MaLiK ZEE~]





Share this topic on FacebookShare this topic on GoogleShare this topic on MySpaceShare this topic on TwitterShare this topic on Yahoo



Thanks given by:


October 30, 2018, 12:18:08 PM
Reply #1
  • Semi Newbie
  • **
  • Thank You: 0
  • Reputation: 0
  • Activity:
    1.4%
  • Country: pk
  • Posts: 7
  • Topics: 0
  • Join Date: Dec 2016
  • ShareSpark Member
 :thank:Best Yar 90s ki movie  k karo  Bhai g Thankss

Tags:
 

Related Topics





Back to top