+ ShareSpark.net »  :::: Bollywood Zone » Indian PC Videos
|- ASOKA (2001) (MUSIC VIDEO ALBUM) Untouched - BD50 TrueHD 5.1 ESuBS By ~MaLiK ZEE~


100% DTH Offer

ASOKA (2001) (MUSIC VIDEO ALBUM) Untouched - BD50 TrueHD 5.1 ESuBS By ~MaLiK ZEE~

0 Members and 1 Guest are viewing this topic.

October 30, 2018, 04:48:17 AM
ASOKA (2001) (MUSIC VIDEO ALBUM) Untouched - BD50 TrueHD 5.1 ESuBS By ~MaLiK ZEE~


~♥ BollyWooD MoviE ♥~
(ASOKA 2001)

Quote

Specs ♪♫
General
ID                          : 1 (0x1)
Format                      : BDAV
Format                      : M2ts
Format/Info                 : Blu-ray Video
File size                   : 5.84 GB
Overall bit rate mode       : Variable
Overall bit rate            : 36.7 Mb/s
Maximum Overall bit rate    : 35.5 Mb/s

♪ Video ♪
ID                          : 4113 (0x1011)
Menu ID                     : 1 (0x1)
Format                      : AVC
Format/Info                 : Advanced Video Codec
Format profile              : [email protected]
Format settings             : 4 Ref Frames
Format settings, CABAC      : No
Format settings, ReFrames   : 4 frames
Codec ID                    : 27
Bit rate mode               : Variable
Bit rate                    : 34.6 Mb/s
Maximum bit rate            : 40.0 Mb/s
Width                       : 1 920 pixels
Height                      : 1 080 pixels
Display aspect ratio        : 16:9
Frame rate                  : 24.000 FPS
Color space                 : YUV
Chroma subsampling          : 4:2:0
Bit depth                   : 8 bits
Scan type                   : Progressive
Bits/(Pixel*Frame)          : 0.695
Stream size                 : 922 MiB (94%)

♫ Audio ♫
ID                          : 4352 (0x1100)
Menu ID                     : 1 (0x1)
Format                      : TrueHD / AC-3
Muxing mode                 : Stream extension
Codec ID                    : 131
Bit rate mode               : Variable / Constant
Bit rate                    : 640 kb/s
Maximum bit rate            : 6 654 kb/s
Channel(s)                  : 6 channels
Channel positions           : Front: L C R, Side: L R, LFE
Sampling rate               : 96.0 kHz / 48.0 kHz
Frame rate                  : 31.250 FPS (1536 SPF)
Bit depth                   : 16 bits
Delay relative to video     : -142 ms
Stream size                 : 17.1 MiB (2%)
Language                    : Hindi
Service kind                : Complete Main


English Subtitles : Yes
Chapters : No

 :ss:



























 :download:

Google Drive

Quote
01-San Sanana [By ~MaLiK ZEE~]

02-Aa Tayar Hoja [By ~MaLiK ZEE~]

03-O Re Kanchi [DTOne]

04-Roshni Se [DTOne]

05-Raat Ka Nasha [DTOne]

06-San Sanana End Roll [DTOne]





Share this topic on FacebookShare this topic on GoogleShare this topic on MySpaceShare this topic on TwitterShare this topic on Yahoo



Thanks given by:


October 30, 2018, 10:56:15 AM
Reply #1
  • Semi Newbie
  • **
  • Thank You: 0
  • Reputation: 0
  • Activity:
    5%
  • Posts: 29
  • Topics: 0
  • Join Date: Mar 2013
  • ShareSpark Member
1st On Net & Its from Your side Malik GEE.
Keep Rocking Bro with your super uploads.
 :claps:

Tags:
 

Related Topics





Back to top