+ ShareSpark.net »  :::: Bollywood Zone » Indian PC Videos
|- Bareili Ki Barfi (2017) (MUSIC VIDEO ALBUM) 1080p Blu-ray x264 DTS-HDMA 5.1 ESuBS By ~MaLiK ZEE~


100% Recharge Offer

Bareili Ki Barfi (2017) (MUSIC VIDEO ALBUM) 1080p Blu-ray x264 DTS-HDMA 5.1 ESuBS By ~MaLiK ZEE~

0 Members and 1 Guest are viewing this topic.

October 30, 2018, 04:34:25 AM
Bareili Ki Barfi (2017) (MUSIC VIDEO ALBUM) 1080p Blu-ray x264 DTS-HDMA 5.1 ESuBS By ~MaLiK ZEE~


~♥ BollyWooD MoviE ♥~
(Bareili Ki Barfi 2017)

Quote

Specs ♪♫
General
Format                      : Matroska
Format version              : Version 4 / Version 2
File size                   : 1.42 GB
Overall bit rate            : 15.4 Mb/s
Encoded date                : UTC 2018-10-26 05:10:30
Writing application         : mkvmerge v25.0.0 ('Prog Noir') 64-bit
Writing library             : libebml v1.3.6 + libmatroska v1.4.9

♪ Video ♪
ID                          : 1
Format                      : AVC
Format/Info                 : Advanced Video Codec
Format profile              : [email protected]
Format settings             : CABAC / 5 Ref Frames
Format settings, CABAC      : Yes
Format settings, ReFrames   : 5 frames
Codec ID                    : V_MPEG4/ISO/AVC
Bit rate                    : 9 448 kb/s
Width                       : 1 918 pixels
Height                      : 802 pixels
Display aspect ratio        : 2.40:1
Frame rate mode             : Constant
Frame rate                  : 24.000 FPS
Color space                 : YUV
Chroma subsampling          : 4:2:0
Bit depth                   : 8 bits
Scan type                   : Progressive
Bits/(Pixel*Frame)          : 0.256
Stream size                 : 117 MiB (61%)
Language                    : English
Default                     : Yes
Forced                      : No
Color range                 : Limited
Color primaries             : BT.709
Transfer characteristics    : BT.709
Matrix coefficients         : BT.709

♫ Audio ♫

Audio #1
ID                          : 2
Format                      : DTS
Format/Info                 : Digital Theater Systems
Format profile              : MA / Core
Codec ID                    : A_DTS
Bit rate mode               : Variable / Constant
Bit rate                    : 5 389 kb/s / 1 509 kb/s
Channel(s)                  : 6 channels
Channel positions           : Front: L C R, Side: L R, LFE
Sampling rate               : 48.0 kHz
Frame rate                  : 93.750 FPS (512 SPF)
Bit depth                   : 24 bits
Compression mode            : Lossless / Lossy
Delay relative to video     : -957 ms
Stream size                 : 67.4 MiB (35%)
Title                       : By ~MaLiK ZEE~ 1
Language                    : Hindi
Default                     : Yes
Forced                      : No

Audio #2
ID                          : 3
Format                      : AC-3
Format/Info                 : Audio Coding 3
Codec ID                    : A_AC3
Bit rate mode               : Constant
Bit rate                    : 640 kb/s
Channel(s)                  : 6 channels
Channel positions           : Front: L C R, Side: L R, LFE
Sampling rate               : 48.0 kHz
Frame rate                  : 31.250 FPS (1536 SPF)
Bit depth                   : 16 bits
Compression mode            : Lossy
Delay relative to video     : -936 ms
Stream size                 : 8.00 MiB (4%)
Title                       : By ~MaLiK ZEE~ 2
Language                    : Hindi
Service kind                : Complete Main
Default                     : No
Forced                      : No

♫ Subtitles ♫
Text
ID                          : 4
Format                      : PGS
Muxing mode                 : zlib
Codec ID                    : S_HDMV/PGS
Codec ID/Info               : Picture based subtitle format used on BDs/HD-DVDs
Bit rate                    : 36.7 kb/s
Count of elements           : 29
Stream size                 : 420 KiB (0%)
Title                       : By ~MaLiK ZEE~
Language                    : English
Default                     : Yes
Forced                      : Yes


Ripped By ~MaLiK ZEE~

 :ss:































 :download:

Google Drive

Quote
01-Twist Kamariya [By ~MaLiK ZEE~]

02-Nazam Nazm [By ~MaLiK ZEE~]

03-Badass Babuaa [By ~MaLiK ZEE~]

04-Sweety Tera Drama [By ~MaLiK ZEE~]

05-Bairaagi [By ~MaLiK ZEE~]

06-Sweety Tera Drama End Roll [By ~MaLiK ZEE~]

07-Twist Kamariya End Roll [By ~MaLiK ZEE~]





Share this topic on FacebookShare this topic on GoogleShare this topic on MySpaceShare this topic on TwitterShare this topic on Yahoo

« Last Edit: October 30, 2018, 04:35:52 AM by 【M】【A】【L】【I】【K】 【Z】【E】【E】 »


Thanks given by:


Tags:
 

Related Topics





Back to top