+ ShareSpark.net »  :::: Bollywood Zone » Indian PC Videos
|- Ek Villain (2014) (MUSIC VIDEO ALBUM) 1080p Blu-ray x264 DTS-HDMA 5.1 ESuBS By ~MaLiK ZEE~


Amazon Pantry Offer

Ek Villain (2014) (MUSIC VIDEO ALBUM) 1080p Blu-ray x264 DTS-HDMA 5.1 ESuBS By ~MaLiK ZEE~

0 Members and 1 Guest are viewing this topic.

October 27, 2018, 04:32:35 AM
Ek Villain (2014) (MUSIC VIDEO ALBUM) 1080p Blu-ray x264 DTS-HDMA 5.1 ESuBS By ~MaLiK ZEE~


~♥ BollyWooD MoviE ♥~
(Ek Villain 2014)

Quote

Specs ♪♫
General
Format                      : Matroska
Format version              : Version 4 / Version 2
File size                   : 2.12 GB
Overall bit rate            : 10.5 Mb/s
Encoded date                : UTC 2018-10-21 06:59:33
Writing application         : mkvmerge v25.0.0 ('Prog Noir') 64-bit
Writing library             : libebml v1.3.6 + libmatroska v1.4.9

♪ Video ♪
ID                          : 1
Format                      : AVC
Format/Info                 : Advanced Video Codec
Format profile              : [email protected]
Format settings             : CABAC / 5 Ref Frames
Format settings, CABAC      : Yes
Format settings, ReFrames   : 5 frames
Codec ID                    : V_MPEG4/ISO/AVC
Bit rate                    : 4 887 kb/s
Width                       : 1 920 pixels
Height                      : 820 pixels
Display aspect ratio        : 2.35:1
Frame rate mode             : Constant
Frame rate                  : 24.000 FPS
Color space                 : YUV
Chroma subsampling          : 4:2:0
Bit depth                   : 8 bits
Scan type                   : Progressive
Bits/(Pixel*Frame)          : 0.129
Stream size                 : 203 MiB (47%)
Language                    : English
Default                     : Yes
Forced                      : No
Color range                 : Limited
Color primaries             : BT.709
Transfer characteristics    : BT.709
Matrix coefficients         : BT.709

♫ Audio ♫

Audio #1
ID                          : 2
Format                      : DTS
Format/Info                 : Digital Theater Systems
Format profile              : MA / Core
Codec ID                    : A_DTS
Bit rate mode               : Variable / Constant
Bit rate                    : 4 922 kb/s / 1 509 kb/s
Channel(s)                  : 6 channels
Channel positions           : Front: L C R, Side: L R, LFE
Sampling rate               : 48.0 kHz
Frame rate                  : 93.750 FPS (512 SPF)
Bit depth                   : 24 bits
Compression mode            : Lossless / Lossy
Stream size                 : 204 MiB (47%)
Title                       : By ~MaLiK ZEE~ 1
Language                    : Hindi
Default                     : Yes
Forced                      : No

Audio #2
ID                          : 3
Format                      : AC-3
Format/Info                 : Audio Coding 3
Codec ID                    : A_AC3
Bit rate mode               : Constant
Bit rate                    : 640 kb/s
Channel(s)                  : 6 channels
Channel positions           : Front: L C R, Side: L R, LFE
Sampling rate               : 48.0 kHz
Frame rate                  : 31.250 FPS (1536 SPF)
Bit depth                   : 16 bits
Compression mode            : Lossy
Stream size                 : 26.5 MiB (6%)
Title                       : By ~MaLiK ZEE~ 2
Language                    : Hindi
Service kind                : Complete Main
Default                     : No
Forced                      : No

♫ Subtitle ♫


Text #1
ID                          : 4
Format                      : PGS
Muxing mode                 : zlib
Codec ID                    : S_HDMV/PGS
Codec ID/Info               : Picture based subtitle format used on BDs/HD-DVDs
Bit rate                    : 28.9 kb/s
Count of elements           : 107
Stream size                 : 1.18 MiB (0%)
Title                       : By ~MaLiK ZEE~
Language                    : English
Default                     : Yes
Forced                      : No

Text #2
ID                          : 5
Format                      : PGS
Muxing mode                 : zlib
Codec ID                    : S_HDMV/PGS
Codec ID/Info               : Picture based subtitle format used on BDs/HD-DVDs
Bit rate                    : 17.3 kb/s
Count of elements           : 108
Stream size                 : 725 KiB (0%)
Title                       : By ~MaLiK ZEE~
Language                    : Arabic
Default                     : No
Forced                      : No


Ripped By ~MaLiK ZEE~

 :ss:






















 :download:

Google Drive

Quote
01-Banjaara [By ~MaLiK ZEE~]

02-Zaroorat [By ~MaLiK ZEE~]

03-Galliyan [By ~MaLiK ZEE~]

04-Humdard [By ~MaLiK ZEE~]

05-Awari [By ~MaLiK ZEE~]

06-Galliyan End Roll [By ~MaLiK ZEE~]





Share this topic on FacebookShare this topic on GoogleShare this topic on MySpaceShare this topic on TwitterShare this topic on Yahoo



Thanks given by:


Tags:
 

Related Topics





Back to top