+ ShareSpark.net »  :::: Bollywood Zone » Indian PC Videos
|- Tiger Zinda Hai (2017) (MUSIC VIDEO ALBUM) Untouched - BD50 DOLBY ATMOS TrueHD 7.1 ESuBS By ~MaLiK Z


Mastercard 10% Off

Tiger Zinda Hai (2017) (MUSIC VIDEO ALBUM) Untouched - BD50 DOLBY ATMOS TrueHD 7.1 ESuBS By ~MaLiK Z

0 Members and 1 Guest are viewing this topic.

October 18, 2018, 10:40:07 AM
Tiger Zinda Hai (2017) (MUSIC VIDEO ALBUM) Untouched - BD50 DOLBY ATMOS TrueHD 7.1 ESuBS By ~MaLiK ZEE~


~♥ BollyWooD MoviE ♥~
(Tiger Zinda Hai 2017)

Quote

Specs ♪♫
General
ID                          : 1 (0x1)
Format                      : BDAV
Format/Info                 : Blu-ray Video
File size                   : 3.89 GB
Overall bit rate mode       : Variable
Overall bit rate            : 38.4 Mb/s
Maximum Overall bit rate    : 35.5 Mb/s

♪ Video ♪
ID                          : 4113 (0x1011)
Menu ID                     : 1 (0x1)
Format                      : AVC
Format/Info                 : Advanced Video Codec
Format profile              : [email protected]
Format settings             : 4 Ref Frames
Format settings, CABAC      : No
Format settings, ReFrames   : 4 frames
Codec ID                    : 27
Bit rate mode               : Variable
Bit rate                    : 36.2 Mb/s
Maximum bit rate            : 40.0 Mb/s
Width                       : 1 920 pixels
Height                      : 1 080 pixels
Display aspect ratio        : 16:9
Frame rate                  : 24.000 FPS
Color space                 : YUV
Chroma subsampling          : 4:2:0
Bit depth                   : 8 bits
Scan type                   : Progressive
Bits/(Pixel*Frame)          : 0.727
Stream size                 : 1.22 GiB (94%)

♫ Audio ♫
ID                          : 4352 (0x1100)
Menu ID                     : 1 (0x1)
Format                      : TrueHD / AC-3
Format profile              : TrueHD+Atmos / TrueHD / AC-3
Muxing mode                 : Stream extension
Codec ID                    : 131
Bit rate mode               : Variable / Constant
Bit rate                    : 640 kb/s
Maximum bit rate            : 7 494 kb/s
Channel(s)                  : Object Based / 8 channels / 6 channels
Channel positions           : Object Based / Front: L C R, Side: L R, Back: L R, LFE / Front: L C R, Side: L R, LFE
Sampling rate               :  / 48.0 kHz / 48.0 kHz
Frame rate                  : 31.250 FPS (1536 SPF)
Bit depth                   : 16 bits
Delay relative to video     : -150 ms
Stream size                 : 22.0 MiB (2%)
Service kind                : Complete Main

Codec                                 Language               

-----                                   --------         
Presentation Graphics          English                     
Presentation Graphics          Arabic                             
Presentation Graphics          Dutch                         
Presentation Graphics          French                           
Presentation Graphics          Hindi                             
Presentation Graphics          Indonesian                     
Presentation Graphics          Italian                         
Presentation Graphics          Malay                           
Presentation Graphics          Portuguese                         
Presentation Graphics          Spanish                         
Presentation Graphics          Thai   

Ripped By ~MaLiK ZEE~

 :ss:























 :download:

Google Drive

Quote
01-Dil Dia Gallan [By ~MaLiK ZEE~]

02-Tera Noor [By ~MaLiK ZEE~]

03-Swag Se Swagat [By ~MaLiK ZEE~]







Share this topic on FacebookShare this topic on GoogleShare this topic on MySpaceShare this topic on TwitterShare this topic on Yahoo



Thanks given by:


October 18, 2018, 02:21:48 PM
Reply #1
  • Devoted Member
  • **
  • Thank You: 0
  • Reputation: 6
  • Activity:
    21.2%
  • Country: in
  • Posts: 121
  • Topics: 0
  • Join Date: Oct 2016
  • ShareSpark Member

October 23, 2018, 04:47:25 PM
Reply #2
  • Semi Newbie
  • **
  • Thank You: 0
  • Reputation: 0
  • Activity:
    5%
  • Posts: 29
  • Topics: 0
  • Join Date: Mar 2013
  • ShareSpark Member
Thanks For Sharing.
Already into my Collection.
Keep posting more BD Music. :coffee:

Tags:
 

Related Topics





Back to top