+ ShareSpark.net »  :::: Bollywood Zone » Indian PC Videos
|- Tiger Zinda Hai (2017) (MUSIC VIDEO ALBUM) 1080p Blu-ray x264 DOLBY ATMOS TrueHD 7.1 ESuBS By ~MaLiK


Amazon Fashion

Tiger Zinda Hai (2017) (MUSIC VIDEO ALBUM) 1080p Blu-ray x264 DOLBY ATMOS TrueHD 7.1 ESuBS By ~MaLiK

0 Members and 1 Guest are viewing this topic.

October 18, 2018, 10:13:56 AM
Tiger Zinda Hai (2017) (MUSIC VIDEO ALBUM) 1080p Blu-ray x264 DOLBY ATMOS TrueHD 7.1 ESuBS By ~MaLiK ZEE~


~♥ BollyWooD MoviE ♥~
(Tiger Zinda Hai 2017)

Quote

Specs ♪♫
General
Format                      : Matroska
Format version              : Version 4 / Version 2
File size                   : 1.08 GB
Overall bit rate mode       : Variable
Overall bit rate            : 9 534 kb/s
Encoded date                : UTC 2018-10-17 01:53:17
Writing application         : mkvmerge v25.0.0 ('Prog Noir') 64-bit
Writing library             : libebml v1.3.6 + libmatroska v1.4.9

♪ Video ♪
ID                          : 1
Format                      : AVC
Format/Info                 : Advanced Video Codec
Format profile              : [email protected]
Format settings             : CABAC / 5 Ref Frames
Format settings, CABAC      : Yes
Format settings, ReFrames   : 5 frames
Codec ID                    : V_MPEG4/ISO/AVC
Bit rate                    : 4 028 kb/s
Width                       : 1 920 pixels
Height                      : 816 pixels
Display aspect ratio        : 2.35:1
Frame rate mode             : Constant
Frame rate                  : 24.000 FPS
Color space                 : YUV
Chroma subsampling          : 4:2:0
Bit depth                   : 8 bits
Scan type                   : Progressive
Bits/(Pixel*Frame)          : 0.107
Stream size                 : 139 MiB (42%)
Language                    : English
Default                     : Yes
Forced                      : No
Color range                 : Limited
Color primaries             : BT.709
Transfer characteristics    : BT.709
Matrix coefficients         : BT.709

♫ Audio ♫

Audio #1
ID                          : 2
Format                      : TrueHD
Format profile              : TrueHD+Atmos / TrueHD
Codec ID                    : A_TRUEHD
Bit rate mode               : Variable
Bit rate                    : 4 773 kb/s
Maximum bit rate            : 7 494 kb/s
Channel(s)                  : Object Based / 8 channels
Channel positions           : Object Based / Front: L C R, Side: L R, Back: L R, LFE
Sampling rate               :  / 48.0 kHz
Frame rate                  : 1 200.000 FPS (40 SPF)
Compression mode            : Lossless
Delay relative to video     : 17 ms
Stream size                 : 164 MiB (50%)
Title                       : By~MaLiK ZEE~ 1
Language                    : Hindi
Default                     : Yes
Forced                      : No

Audio #2
ID                          : 3
Format                      : AC-3
Format/Info                 : Audio Coding 3
Codec ID                    : A_AC3
Bit rate mode               : Constant
Bit rate                    : 640 kb/s
Channel(s)                  : 6 channels
Channel positions           : Front: L C R, Side: L R, LFE
Sampling rate               : 48.0 kHz
Frame rate                  : 31.250 FPS (1536 SPF)
Bit depth                   : 16 bits
Compression mode            : Lossy
Delay relative to video     : 16 ms
Stream size                 : 22.0 MiB (7%)
Title                       : By~MaLiK ZEE~ 2
Language                    : Hindi
Service kind                : Complete Main
Default                     : No
Forced                      : No

English & Arabic Subtitles  : Yes
Chapters : No

Ripped By ~MaLiK ZEE~

 :ss:





















 :download:

Google Drive

Quote
01-Dil Dia Gallan [By ~MaLiK ZEE~]

02-Tera Noor [By ~MaLiK ZEE~]

03-Swag Se Swagat [By ~MaLiK ZEE~]





Share this topic on FacebookShare this topic on GoogleShare this topic on MySpaceShare this topic on TwitterShare this topic on Yahoo



Thanks given by:


Tags:
 

Related Topics





Back to top