+ ShareSpark.net »  :::: Bollywood Zone » Indian PC Videos
|- Gunday (2014) (MUSIC VIDEO ALBUM) 1080p Blu-ray x264 DTS-HDMA TrueHD 5.1 ESuBS By ~MaLiK ZEE~


10% SBI and 10% Discount

Gunday (2014) (MUSIC VIDEO ALBUM) 1080p Blu-ray x264 DTS-HDMA TrueHD 5.1 ESuBS By ~MaLiK ZEE~

0 Members and 1 Guest are viewing this topic.

October 18, 2018, 09:54:39 AM
Gunday (2014) (MUSIC VIDEO ALBUM) 1080p Blu-ray x264 DTS-HDMA TrueHD 5.1 ESuBS By ~MaLiK ZEE~


~♥ BollyWooD MoviE ♥~
(Gunday 2014)

Quote

Specs ♪♫
General
Format                      : Matroska
Format version              : Version 4 / Version 2
File size                   : 4.53 GB
Overall bit rate mode       : Variable
Overall bit rate            : 16.1 Mb/s
Encoded date                : UTC 2018-10-17 03:00:44
Writing application         : mkvmerge v25.0.0 ('Prog Noir') 64-bit
Writing library             : libebml v1.3.6 + libmatroska v1.4.9

♪ Video ♪
ID                          : 1
Format                      : AVC
Format/Info                 : Advanced Video Codec
Format profile              : [email protected]
Format settings             : CABAC / 5 Ref Frames
Format settings, CABAC      : Yes
Format settings, ReFrames   : 5 frames
Codec ID                    : V_MPEG4/ISO/AVC
Bit rate                    : 4 951 kb/s
Width                       : 1 920 pixels
Height                      : 816 pixels
Display aspect ratio        : 2.35:1
Frame rate mode             : Constant
Frame rate                  : 24.000 FPS
Color space                 : YUV
Chroma subsampling          : 4:2:0
Bit depth                   : 8 bits
Scan type                   : Progressive
Bits/(Pixel*Frame)          : 0.132
Stream size                 : 154 MiB (31%)
Language                    : English
Default                     : Yes
Forced                      : No
Color range                 : Limited
Color primaries             : BT.709
Transfer characteristics    : BT.709
Matrix coefficients         : BT.709

♫ Audio ♫

Audio #1
ID                          : 2
Format                      : DTS
Format/Info                 : Digital Theater Systems
Format profile              : MA / Core
Codec ID                    : A_DTS
Bit rate mode               : Variable / Constant
Bit rate                    : 4 648 kb/s / 1 509 kb/s
Channel(s)                  : 6 channels
Channel positions           : Front: L C R, Side: L R, LFE
Sampling rate               : 48.0 kHz
Frame rate                  : 93.750 FPS (512 SPF)
Bit depth                   : 24 bits
Compression mode            : Lossless / Lossy
Delay relative to video     : 5 ms
Stream size                 : 145 MiB (29%)
Title                       : By~MaLiK ZEE~ 1
Language                    : Hindi
Default                     : Yes
Forced                      : No

Audio #2
ID                          : 3
Format                      : TrueHD
Codec ID                    : A_TRUEHD
Bit rate mode               : Variable
Bit rate                    : 5 831 kb/s
Maximum bit rate            : 7 314 kb/s
Channel(s)                  : 6 channels
Channel positions           : Front: L C R, Side: L R, LFE
Sampling rate               : 96.0 kHz
Frame rate                  : 2 400.000 FPS (40 SPF)
Compression mode            : Lossless
Delay relative to video     : 17 ms
Stream size                 : 182 MiB (36%)
Title                       : By~MaLiK ZEE~ 2
Language                    : Hindi
Default                     : No
Forced                      : No

Audio #3
ID                          : 4
Format                      : AC-3
Format/Info                 : Audio Coding 3
Codec ID                    : A_AC3
Bit rate mode               : Constant
Bit rate                    : 640 kb/s
Channel(s)                  : 6 channels
Channel positions           : Front: L C R, Side: L R, LFE
Sampling rate               : 48.0 kHz
Frame rate                  : 31.250 FPS (1536 SPF)
Bit depth                   : 16 bits
Compression mode            : Lossy
Delay relative to video     : 16 ms
Stream size                 : 20.0 MiB (4%)
Title                       : By~MaLiK ZEE~ 3
Language                    : Hindi
Service kind                : Complete Main
Default                     : No
Forced                      : No


English & Arabic Subtitles : Yes
Chapters : No

Ripped By ~MaLiK ZEE~

 :ss:





























 :download:

Google Drive

Quote
01-Mann Kunto Maula [By ~MaLiK ZEE~]

02-Jashn-E-Ishqa [By ~MaLiK ZEE~]

03-Asalaam-E-Ishqum [By ~MaLiK ZEE~]

04-Tune Maari Entriyaan [By ~MaLiK ZEE~]

05-Jiya [By ~MaLiK ZEE~]

06-Saaiyaan [By ~MaLiK ZEE~]

07-Mann Kunto Maula End Roll [By ~MaLiK ZEE~]







Share this topic on FacebookShare this topic on GoogleShare this topic on MySpaceShare this topic on TwitterShare this topic on Yahoo



Thanks given by:


Tags:
 

Related Topics





Back to top