+ ShareSpark.net »  :::: Bollywood Zone » Indian PC Videos
|- Sonu Ke Titu Ki Sweety (2018) Bollywood Movie All Video Music Album Blu-Ray 1080p AVC DTS-HDMA 5.1 B


10% SBI and 10% Discount

Sonu Ke Titu Ki Sweety (2018) Bollywood Movie All Video Music Album Blu-Ray 1080p AVC DTS-HDMA 5.1 B

0 Members and 1 Guest are viewing this topic.

October 05, 2018, 02:04:58 AM
Sonu Ke Titu Ki Sweety (2018) Bollywood Movie All Video Music Album Blu-Ray 1080p AVC DTS-HDMA 5.1 By ~MaLiK ZEE~


~♥ BollyWooD MoviE ♥~
(Sonu Ke Titu Ki Sweety 2018)

Quote

Specs ♪♫
General
Format                      : Matroska
Format version              : Version 4 / Version 2
File size                   : 7.48 GB
Overall bit rate            : 41.2 Mb/s
Encoded date                : UTC 2018-10-04 14:39:32
Writing application         : mkvmerge v25.0.0 ('Prog Noir') 64-bit
Writing library             : libebml v1.3.6 + libmatroska v1.4.9

♪ Video ♪
ID                          : 1
Format                      : AVC
Format/Info                 : Advanced Video Codec
Format profile              : [email protected]
Format settings             : 4 Ref Frames
Format settings, CABAC      : No
Format settings, ReFrames   : 4 frames
Format settings, GOP        : M=4, N=12
Codec ID                    : V_MPEG4/ISO/AVC
Bit rate                    : 34.7 Mb/s
Width                       : 1 920 pixels
Height                      : 1 080 pixels
Display aspect ratio        : 16:9
Frame rate mode             : Constant
Frame rate                  : 24.000 FPS
Color space                 : YUV
Chroma subsampling          : 4:2:0
Bit depth                   : 8 bits
Scan type                   : Progressive
Bits/(Pixel*Frame)          : 0.698
Stream size                 : 803 MiB (84%)
Language                    : English
Default                     : Yes
Forced                      : No

♫ Audio ♫

Audio #1
ID                          : 2
Format                      : DTS
Format/Info                 : Digital Theater Systems
Format profile              : MA / Core
Codec ID                    : A_DTS
Bit rate mode               : Variable / Constant
Bit rate                    : 5 835 kb/s / 1 509 kb/s
Channel(s)                  : 6 channels
Channel positions           : Front: L C R, Side: L R, LFE
Sampling rate               : 48.0 kHz
Frame rate                  : 93.750 FPS (512 SPF)
Bit depth                   : 24 bits
Compression mode            : Lossless / Lossy
Delay relative to video     : 3 ms
Stream size                 : 135 MiB (14%)
Title                       : By~MaLiK ZEE~ 1
Language                    : Hindi
Default                     : Yes
Forced                      : No

Audio #2
ID                          : 3
Format                      : AC-3
Format/Info                 : Audio Coding 3
Codec ID                    : A_AC3
Duration                    : 3 min 13 s
Bit rate mode               : Constant
Bit rate                    : 640 kb/s
Channel(s)                  : 6 channels
Channel positions           : Front: L C R, Side: L R, LFE
Sampling rate               : 48.0 kHz
Frame rate                  : 31.250 FPS (1536 SPF)
Bit depth                   : 16 bits
Compression mode            : Lossy
Delay relative to video     : 24 ms
Stream size                 : 14.8 MiB (2%)
Title                       : By~MaLiK ZEE~ 2
Language                    : Hindi
Service kind                : Complete Main
Default                     : No
Forced                      : No


English Subtitles : Yes
Chapters : Yes

Ripped By ~MaLiK ZEE~

 :ss:































 :download:

Google Drive

Quote
01-Bom Diggy Diggy [By ~MaLiK ZEE~]

02-Subah Subah [By ~MaLiK ZEE~]

03-Dil Chori [By ~MaLiK ZEE~]

04-Sweety Slowly Slowly [By ~MaLiK ZEE~]

05-Kaun Nachdi [By ~MaLiK ZEE~]

06-Lakk Mera Hit [By ~MaLiK ZEE~]

07-Tera Yaar Hoon Mein [By ~MaLiK ZEE~]

08-Chhote Chhote Peg End Roll [By ~MaLiK ZEE~]








Share this topic on FacebookShare this topic on GoogleShare this topic on MySpaceShare this topic on TwitterShare this topic on Yahoo



Thanks given by:


October 05, 2018, 11:40:53 AM
Reply #1
  • -= Enjoy Your Life =-
  • Junior Mod (Inactive)
  • Elite Forces
  • ***
  • Thank You: 351
  • Reputation: 239
  • Activity:
    0.6%
  • Country: in
  • Posts: 1200
  • Topics: 206
  • Join Date: Feb 2013
  • =$ Success Never Ends $=

October 05, 2018, 11:52:39 AM
Reply #2

October 06, 2018, 02:35:58 PM
Reply #3
  • Semi Newbie
  • **
  • Thank You: 0
  • Reputation: 0
  • Activity:
    5%
  • Posts: 29
  • Topics: 0
  • Join Date: Mar 2013
  • ShareSpark Member
Are these Tracks From UNTOUCHED BD50 ?.
they are in mkv format though.

October 06, 2018, 08:54:00 PM
Reply #4
  • Semi Newbie
  • **
  • Thank You: 0
  • Reputation: 0
  • Activity:
    3.4%
  • Country: in
  • Posts: 41
  • Topics: 0
  • Join Date: Nov 2013
  • ShareSpark Member

October 10, 2018, 11:10:29 AM
Reply #5
  • Semi Newbie
  • **
  • Thank You: 0
  • Reputation: 0
  • Activity:
    5%
  • Posts: 29
  • Topics: 0
  • Join Date: Mar 2013
  • ShareSpark Member
You can Use SMART CUTTER for splitting Music Videos From UNTOUCHED BD with M2TS Format eve without losing quality.
Its faster than MKVMERGE & Does not loose single bit.

October 18, 2018, 03:03:48 PM
Reply #6
  • Devoted Member
  • **
  • Thank You: 0
  • Reputation: 6
  • Activity:
    21.2%
  • Country: in
  • Posts: 121
  • Topics: 0
  • Join Date: Oct 2016
  • ShareSpark Member

Tags:
 

Related Topics





Back to top