+ ShareSpark.net »  :::: Dubbed Zone (Dubbed English in Hindi) » English Movies Dubbed in Hindi » Small Size Dubbed Movies
|- Yongary, Monster From The Deep 1967 x264 720p Esub BluRay Dual Audio English Hindi GOPISAHI


HDFC 10% Off

Yongary, Monster From The Deep 1967 x264 720p Esub BluRay Dual Audio English Hindi GOPISAHI

0 Members and 1 Guest are viewing this topic.

August 15, 2018, 05:34:43 PM
  • Legend Member
  • ****
  • Topic Author
  • Thank You: 1604
  • Reputation: 528
  • Activity:
    100%
  • Country: pk
  • Posts: 1710
  • Topics: 1010
  • Join Date: Mar 2015
  • ShareSpark Member
Yongary, Monster From The Deep 1967 x264 720p Esub BluRay Dual Audio English Hindi GOPISAHI









Format : Matroska

Format version : Version 4 / Version 2

File size : 454 MiB

Duration : 1 h 19 min

Overall bit rate : 795 kb/s

Movie name : Yongary, Monster From The Deep 1967 GOPISAHI


Video

Format : AVC

Format/Info : Advanced Video Codec

Codec ID : V_MPEG4/ISO/AVC

Duration : 1 h 19 min

Bit rate : 599 kb/s

Width : 1 280 pixels

Height : 544 pixels

Display aspect ratio : 2.35:1

Frame rate mode : Constant

Frame rate : 23.976 (24000/1001) FPS

Color space : YUV

Chroma subsampling : 4:2:0

Bit depth : 8 bits

Scan type : Progressive

Bits/(Pixel*Frame) : 0.036

Stream size : 342 MiB (75%)

Title : GOPISAHI

Writing library : x264 core 155 r2901 7d0ff22


Audio #1

Format : AAC

Format/Info : Advanced Audio Codec

Duration : 1 h 19 min

Bit rate : 96.0 kb/s

Channel(s) : 2 channels

Channel positions : Front: L R

Sampling rate : 48.0 kHz

Frame rate : 46.875 FPS (1024 SPF)

Compression mode : Lossy

Delay relative to video : -21 ms

Stream size : 55.0 MiB (12%)

Title : GOPISAHI

Language : Hindi


Audio #2

Format : AAC

Format/Info : Advanced Audio Codec

Duration : 1 h 19 min

Bit rate : 96.0 kb/s

Channel(s) : 2 channels

Channel positions : Front: L R

Sampling rate : 48.0 kHz

Frame rate : 46.875 FPS (1024 SPF)

Compression mode : Lossy

Delay relative to video : -21 ms

Stream size : 55.0 MiB (12%)

Title : GOPISAHI

Language : English


Menu

00:00:00.000 : en:00:00:00.000

00:11:06.207 : en:00:11:05.956

00:20:48.664 : en:00:20:48.664

00:32:43.462 : en:00:32:43.336

00:41:57.306 : en:00:41:57.264

00:53:32.459 : en:00:53:32.292

01:02:04.221 : en:01:02:03.886

01:06:56.804 : en:01:06:56.721




 :ss:











 :download:





















Share this topic on FacebookShare this topic on GoogleShare this topic on MySpaceShare this topic on TwitterShare this topic on Yahoo



Thanks given by:


Tags:
 

Related Topics





Back to top