+ ShareSpark.net »  :::: Bollywood Zone » Bollywood Movies (Pre Releases)
|- Koyelaanchal (2014) - 720p - DVDRip - Hindi - x264 - AC3 - 5.1 - ESubs - Mafiaking


Mastercard 10% Off

Koyelaanchal (2014) - 720p - DVDRip - Hindi - x264 - AC3 - 5.1 - ESubs - Mafiaking

0 Members and 1 Guest are viewing this topic.

August 07, 2018, 02:34:08 PM
  • Legend Member
  • ****
  • Topic Author
  • Thank You: 1410
  • Reputation: 525
  • Activity:
    100%
  • Country: pk
  • Posts: 1702
  • Topics: 1002
  • Join Date: Mar 2015
  • ShareSpark Member
Koyelaanchal (2014) - 720p - DVDRip - Hindi - x264 - AC3 - 5.1 - ESubs - Mafiaking













General
Format : Matroska
Format version : Version 4 / Version 2
File size : 1.14 GiB
Duration : 2h 25mn
Overall bit rate : 1 120 Kbps
Encoded date : UTC 2014-09-30 16:45:20
Writing application : mkvmerge v7.0.0 ('Where We Going') 64bit built on Jun 9 2014 15:16:27
Writing library : libebml v1.3.0 + libmatroska v1.4.1


Video
ID : 1
Format : AVC
Format/Info : Advanced Video Codec
Format profile : [email protected]
Format settings, CABAC : Yes
Format settings, ReFrames : 4 frames
Codec ID : V_MPEG4/ISO/AVC
Duration : 2h 25mn
Bit rate : 874 Kbps
Width : 1 280 pixels
Height : 544 pixels
Display aspect ratio : 2.35:1
Frame rate mode : Constant
Frame rate : 25.000 fps
Color space : YUV
Chroma subsampling : 4:2:0
Bit depth : 8 bits
Scan type : Progressive
Bits/(Pixel*Frame) : 0.050
Stream size : 908 MiB (78%)
Title : Mafiaking
Language : Hindi
Default : Yes
Forced : No


Audio
ID : 2
Format : AC-3
Format/Info : Audio Coding 3
Mode extension : CM (complete main)
Format settings, Endianness : Big
Codec ID : A_AC3
Duration : 2h 25mn
Bit rate mode : Constant
Bit rate : 224 Kbps
Channel(s) : 6 channels
Channel positions : Front: L C R, Side: L R, LFE
Sampling rate : 48.0 KHz
Bit depth : 16 bits
Compression mode : Lossy
Delay relative to video : 16ms
Stream size : 233 MiB (20%)
Title : Mafiaking
Language : Hindi
Default : Yes
Forced : No





 :ss:

















 :download:



























Share this topic on FacebookShare this topic on GoogleShare this topic on MySpaceShare this topic on TwitterShare this topic on Yahoo



Thanks given by:


Tags:
 

Related Topics





Back to top