+ ShareSpark.net »  :::: Bollywood Zone » Bollywood Movies (Original Rips) » High Resolution Movies
|- GRAND MASTI (2013) - 12MBPS 1080P EDITED WEBHD - DTONE

10% Off Cashback Carnival

GRAND MASTI (2013) - 12MBPS 1080P EDITED WEBHD - DTONE

0 Members and 1 Guest are viewing this topic.

April 12, 2018, 04:59:08 PM
  • Global Moderator
  • Legend Member
  • *****
  • Topic Author
  • Thank You: 7645
  • Reputation: 1691
  • Activity:
    100%
  • Country: in
  • Posts: 4518
  • Topics: 3765
  • Join Date: Jan 2014
  • ıllıllı ѕмoĸιng ιѕ good ғor нealтн ıllıllı :)
GRAND MASTI (2013) - 12MBPS 1080P EDITED WEBHD - DTONE





Quote
General
Complete name                            : Grand Masti (2013) - 12mbps 1080p Edited WEBHD (Lovepreet1) DUS.mp4
Format                                  : MPEG-4
Format profile                          : Base Media
Codec ID                                : isom (isom/iso2/avc1/mp41)
File size                                : 7.29 GiB
Duration                                : 1 h 33 min
Overall bit rate mode                    : Variable
Overall bit rate                        : 11.2 Mb/s
Writing application                      : Lavf56.40.101

Video
ID                                      : 1
Format                                  : AVC
Format/Info                              : Advanced Video Codec
Format profile                          : [email protected]
Format settings                          : CABAC / 4 Ref Frames
Format settings, CABAC                  : Yes
Format settings, RefFrames              : 4 frames
Codec ID                                : avc1
Codec ID/Info                            : Advanced Video Coding
Duration                                : 1 h 33 min
Bit rate                                : 11.0 Mb/s
Nominal bit rate                        : 12.0 Mb/s
Width                                    : 1 920 pixels
Height                                  : 816 pixels
Display aspect ratio                    : 2.35:1
Frame rate mode                          : Variable
Frame rate                              : 22.836 FPS
Minimum frame rate                      : 0.083 FPS
Maximum frame rate                      : 25.000 FPS
Original frame rate                      : 25.000 FPS
Color space                              : YUV
Chroma subsampling                      : 4:2:0
Bit depth                                : 8 bits
Scan type                                : Progressive
Bits/(Pixel*Frame)                      : 0.307
Stream size                              : 7.17 GiB (98%)
Writing library                          : x264 core 138

Audio
ID                                      : 2
Format                                  : AAC
Format/Info                              : Advanced Audio Codec
Format profile                          : LC
Codec ID                                : mp4a-40-2
Duration                                : 1 h 33 min
Bit rate mode                            : Variable
Bit rate                                : 175 kb/s
Maximum bit rate                        : 195 kb/s
Channel(s)                              : 2 channels
Channel positions                        : Front: L R
Sampling rate                            : 48.0 kHz
Frame rate                              : 46.875 FPS (1024 SPF)
Compression mode                        : Lossy
Stream size                              : 117 MiB (2%)
Default                                  : Yes
Alternate group                          : 1

:ss:






:download:

Quote




File Leeched & Uploaded From




Don't walk as you are king, walk as you don't care who the king is....!!
Never argue with an idiot. They drag you down to their level and then beat you with experience?

Share this topic on FacebookShare this topic on GoogleShare this topic on MySpaceShare this topic on TwitterShare this topic on Yahoo

« Last Edit: April 12, 2018, 04:59:53 PM by Rάήνίјάч1234 »



Don't walk as you are king, walk as you don't care who the king is....!!

Thanks given by:


Tags:
 

Related Topics

  Subject / Started by Replies Last post
5 Replies
1628 Views
Last post February 17, 2018, 12:20:59 PM
by Kitsche
1 Replies
887 Views
Last post October 30, 2017, 11:35:26 PM
by cool dude
1 Replies
532 Views
Last post January 12, 2018, 10:25:24 PM
by Anand00
0 Replies
337 Views
Last post April 12, 2018, 04:22:31 PM
by Rάήνίјάч1234
1 Replies
331 Views
Last post April 12, 2018, 05:31:30 PM
by JokerRonaldo



Back to top