+ ShareSpark.net »  :::: Dubbed Zone (Dubbed English in Hindi) » TV Shows (Dubbed in Hindi)
|- TrollHunters S01E05 1080p x264 NetFlix Rip Hindi AC3 5.1 - SSX

Add 1000 Get 100 Back

TrollHunters S01E05 1080p x264 NetFlix Rip Hindi AC3 5.1 - SSX

0 Members and 1 Guest are viewing this topic.

February 17, 2018, 01:41:17 PM
  • *****************
  • Head Admin
  • Legend Member
  • *****
  • Topic Author
  • Thank You: 6432
  • Reputation: 2852
  • Activity:
    100%
  • Country: in
  • Posts: 18523
  • Topics: 10860
  • Join Date: Mar 2012
  • The Time Is Now......


General

Format                                   : Matroska
Format version                           : Version 4 / Version 2
File size                                : 738 MiB
Duration                                 : 23 min 34 s
Overall bit rate                         : 4 374 kb/s


Video
ID                                       : 1
Format                                   : AVC
Format/Info                              : Advanced Video Codec
Duration                                 : 23 min 34 s
Bit rate                                 : 3 989 kb/s
Width                                    : 1 920 pixels
Height                                   : 1 080 pixels
Display aspect ratio                     : 16:9
Frame rate mode                          : Constant
Frame rate                               : 23.976 (24000/1001) FPS
Color space                              : YUV
Chroma subsampling                       : 4:2:0
Bit depth                                : 8 bits
Scan type                                : Progressive
Bits/(Pixel*Frame)                       : 0.080
Stream size                              : 673 MiB (91%)
Default                                  : Yes
Forced                                   : No

Audio
ID                                       : 2
Format                                   : AC-3
Format/Info                              : Audio Coding 3
Codec ID                                 : A_AC3
Duration                                 : 23 min 34 s
Bit rate mode                            : Constant
Bit rate                                 : 384 kb/s
Channel(s)                               : 6 channels
Channel positions                        : Front: L C R, Side: L R, LFE
Sampling rate                            : 48.0 kHz
Frame rate                               : 31.250 FPS (1536 SPF)
Bit depth                                : 16 bits
Compression mode                         : Lossy
Stream size                              : 64.8 MiB (9%)
Service kind                             : Complete Main
Default                                  : Yes
Forced                                   : No
























Share this topic on FacebookShare this topic on GoogleShare this topic on MySpaceShare this topic on TwitterShare this topic on Yahoo

« Last Edit: February 17, 2018, 01:41:46 PM by -Ð@Rk.ÐèVi£- »



Tags:
 

Related Topics




Back to top