+ ShareSpark.net »  :::: Dubbed Zone (Dubbed English in Hindi) » TV Shows (Dubbed in Hindi)
|- MCMAFIA S01E07 720P WEB-DL X265 AAC DUAL AUDIO [HINDI + ENGLISH] 260MB [ᴅᴇᴥᴛᴇƦ]

10% Off with Visa

MCMAFIA S01E07 720P WEB-DL X265 AAC DUAL AUDIO [HINDI + ENGLISH] 260MB [ᴅᴇᴥᴛᴇƦ]

0 Members and 1 Guest are viewing this topic.

February 12, 2018, 12:50:45 PM
  • Addic7ed
  • Royal Member
  • ****
  • Topic Author
  • Thank You: 499
  • Reputation: 183
  • Activity:
    72.8%
  • Country: np
  • Posts: 1077
  • Topics: 702
  • Join Date: May 2017
  • #Me

 :plot:
~~~[Video]~~~
Format : HEVC
Duration : 57 min 47 s
Bit rate : 400 kb/s
Width : 1 280 pixels
Height : 720 pixels
Frame rate : 25.000 FPS
Stream size : 165 MiB (64%)
Language : English

~~~[Audio 1]~~~
Format : AAC
Bit rate : 128 kb/s
Channel(s) : 2 channels
Stream size : 53.8 MiB (21%)
Language : Hindi

~~~[Audio 2]~~~
Format : AC-3
Bit rate : 96.0 kb/s
Channel(s) : 2 channels
Stream size : 39.7 MiB (15%)
Language : English

~~~[Subtitle]~~~
Format : UTF-8
Duration : 57 min 44 s
Title : teamjio
Language : English


 :ss: :ss:





 :download: :download:





Share this topic on FacebookShare this topic on GoogleShare this topic on MySpaceShare this topic on TwitterShare this topic on Yahoo



Thanks given by:


February 12, 2018, 05:16:29 PM
Reply #1
  • Hero Member
  • ***
  • Thank You: 0
  • Reputation: 7
  • Activity:
    4.2%
  • Country: au
  • Posts: 349
  • Topics: 0
  • Join Date: Oct 2017
  • ShareSpark Member

Tags: new 
 

Related Topics

  Subject / Started by Replies Last post
0 Replies
439 Views
Last post June 05, 2015, 02:31:56 PM
by DJ Hunk
0 Replies
525 Views
Last post June 12, 2017, 08:08:26 AM
by exdking
0 Replies
638 Views
Last post July 23, 2017, 08:20:05 PM
by Nightfire
1 Replies
793 Views
Last post December 29, 2017, 10:15:52 AM
by ~DoSANJiT
1 Replies
814 Views
Last post February 02, 2018, 06:22:58 AM
by Deepak Singh Garia



Back to top