+ ShareSpark.net »  :::: Hollywood Zone » Hollywood Movies (Original Rips) » Small Size Hollywood Movies
|- The Beyond (2018) HDRip H264 MPEG-4 AAC Spy1984

Add 1000 Get 100 Back

The Beyond (2018) HDRip H264 MPEG-4 AAC Spy1984

0 Members and 1 Guest are viewing this topic.

January 09, 2018, 01:03:39 PM
  • Addic7ed
  • Royal Member
  • ****
  • Topic Author
  • Thank You: 500
  • Reputation: 183
  • Activity:
    34%
  • Country: np
  • Posts: 1077
  • Topics: 702
  • Join Date: May 2017
  • #Me

 :plot:

General


Format : MPEG-4
Format profile : Base Media
Codec ID : isom (isom/iso2/avc1/mp41)
File size : 378 MiB
Duration : 1 h 31 min
Overall bit rate : 576 kb/s
Writing application : Lavf57.83.100


Video



ID : 1
Format : AVC
Format/Info : Advanced Video Codec
Format profile : [email protected]
Format settings : CABAC / 5 Ref Frames
Format settings, CABAC : Yes
Format settings, RefFrames : 5 frames
Codec ID : avc1
Codec ID/Info : Advanced Video Coding
Duration : 1 h 31 min
Source duration : 5 min 55 s
Bit rate : 512 kb/s
Width : 720 pixels
Height : 304 pixels
Display aspect ratio : 2.35:1
Frame rate mode : Constant
Frame rate : 23.976 FPS
Color space : YUV
Chroma subsampling : 4:2:0
Bit depth : 8 bits
Scan type : Progressive
Bits/(Pixel*Frame) : 0.098
Stream size : 333 MiB (88%)
Source stream size : 333 MiB (88%)


Audio



ID : 2
Format : AAC
Format/Info : Advanced Audio Codec
Format profile : LC
Codec ID : mp4a-40-2
Duration : 1 h 31 min
Bit rate mode : Constant
Bit rate : 66.2 kb/s
Channel(s) : 2 channels
Channel positions : Front: L R
Sampling rate : 48.0 kHz
Frame rate : 46.875 FPS (1024 SPF)
Compression mode : Lossy
Stream size : 42.6 MiB (11%)
Default : Yes
Alternate group : 1


 :ss: :ss:





 :download: :download:






Share this topic on FacebookShare this topic on GoogleShare this topic on MySpaceShare this topic on TwitterShare this topic on Yahoo




Tags: aayush 
 

Related Topics

  Subject / Started by Replies Last post
0 Replies
423 Views
Last post January 04, 2018, 10:04:11 AM
by -Ð@Rk.ÐèVi£-
0 Replies
425 Views
Last post January 04, 2018, 10:05:18 AM
by -Ð@Rk.ÐèVi£-
0 Replies
430 Views
Last post January 04, 2018, 10:06:34 AM
by -Ð@Rk.ÐèVi£-
0 Replies
696 Views
Last post January 08, 2018, 02:17:05 PM
by UnikAaYush
0 Replies
707 Views
Last post January 08, 2018, 03:04:18 PM
by UnikAaYush



Back to top