+ ShareSpark.net »  :::: Hollywood Zone » Hollywood Movies (Original Rips) » Small Size Hollywood Movies
|- The Light of the Moon (2017) HDRip 389 MB H264 MPEG-4 AAC-Spy1984

Weekend Pay And Play 50% Off

The Light of the Moon (2017) HDRip 389 MB H264 MPEG-4 AAC-Spy1984

0 Members and 1 Guest are viewing this topic.

January 08, 2018, 03:04:18 PM
  • Addic7ed
  • Royal Member
  • ****
  • Topic Author
  • Thank You: 500
  • Reputation: 183
  • Activity:
    34%
  • Country: np
  • Posts: 1077
  • Topics: 702
  • Join Date: May 2017
  • #Me


 :plot:
Bonnie is a young New York architect whose life changes forever when a stranger rapes her in an alley. She receives loving and unwavering support from her boyfriend while trying to cope with the devastating effects of the attack.


General



Format : MPEG-4
Format profile : Base Media
Codec ID : isom (isom/iso2/avc1/mp41)
File size : 390 MiB
Duration : 1 h 34 min
Overall bit rate : 576 kb/s
Writing application : Lavf57.83.100


Video



ID : 1
Format : AVC
Format/Info : Advanced Video Codec
Format profile : [email protected]
Format settings : CABAC / 5 Ref Frames
Format settings, CABAC : Yes
Format settings, RefFrames : 5 frames
Codec ID : avc1
Codec ID/Info : Advanced Video Coding
Duration : 1 h 34 min
Source duration : 1 min 26 s
Bit rate : 512 kb/s
Width : 720 pixels
Height : 304 pixels
Display aspect ratio : 2.35:1
Frame rate mode : Constant
Frame rate : 23.976 FPS
Color space : YUV
Chroma subsampling : 4:2:0
Bit depth : 8 bits
Scan type : Progressive
Bits/(Pixel*Frame) : 0.098
Stream size : 343 MiB (88%)
Source stream size : 343 MiB (88%)



Audio



ID : 2
Format : AAC
Format/Info : Advanced Audio Codec
Format profile : LC
Codec ID : mp4a-40-2
Duration : 1 h 34 min
Bit rate mode : Constant
Bit rate : 66.2 kb/s
Channel(s) : 2 channels
Channel positions : Front: L R
Sampling rate : 48.0 kHz
Frame rate : 46.875 FPS (1024 SPF)
Compression mode : Lossy
Stream size : 43.8 MiB (11%)
Default : Yes
Alternate group : 1


 :ss: :ss:





 :download: :download:






Share this topic on FacebookShare this topic on GoogleShare this topic on MySpaceShare this topic on TwitterShare this topic on Yahoo

« Last Edit: January 08, 2018, 03:05:56 PM by UnikAaYush »



Tags: aayush 
 

Related Topics

  Subject / Started by Replies Last post
0 Replies
270 Views
Last post October 06, 2017, 04:14:05 PM
by ♥[--K4Krish--]♥
0 Replies
251 Views
Last post January 03, 2018, 06:08:11 PM
by PSYCHO
0 Replies
218 Views
Last post January 03, 2018, 08:09:09 PM
by PSYCHO
0 Replies
696 Views
Last post January 08, 2018, 02:17:05 PM
by UnikAaYush
0 Replies
687 Views
Last post January 09, 2018, 01:03:39 PM
by UnikAaYush



Back to top