+ ShareSpark.net »  :::: Bollywood Zone » Bollywood Movies (Original Rips)
|- Golmaal Again (2017) Hindi BluRay 720p x264 AAC 5.1 ESubs...Hon3y [With Google Drive]

Mobile Recharge Offer 20% Off
  • Golmaal Again (2017) Hindi BluRay 720p x264 AAC 5.1 ESubs...Hon3y [With Google Drive] 5 1
Currently:  

Golmaal Again (2017) Hindi BluRay 720p x264 AAC 5.1 ESubs...Hon3y [With Google Drive]

0 Members and 1 Guest are viewing this topic.

December 15, 2017, 08:04:21 PM
  • Global Moderator
  • Legend Member
  • *****
  • Topic Author
  • Thank You: 7625
  • Reputation: 1679
  • Activity:
    100%
  • Country: in
  • Posts: 4514
  • Topics: 3762
  • Join Date: Jan 2014
  • ıllıllı ѕмoĸιng ιѕ good ғor нealтн ıllıllı :)
Golmaal Again (2017) Hindi BluRay 720p x264 AAC 5.1 ESubs...Hon3y



Quote
General
Format                                   : Matroska
Format version                           : Version 4 / Version 2
File size                                : 1.20 GiB
Duration                                 : 2 h 31 min
Overall bit rate                         : 1 134 kb/s
Movie name                               : Golmaal Again---Pasha@Hon3yHD

Video
Format                                   : AVC
Format/Info                              : Advanced Video Codec
Format profile                           : [email protected]
Format settings, CABAC                   : Yes
Format settings, RefFrames               : 12 frames
Codec ID                                 : V_MPEG4/ISO/AVC
Duration                                 : 2 h 31 min
Bit rate                                 : 940 kb/s
Width                                    : 1 280 pixels
Height                                   : 536 pixels
Display aspect ratio                     : 2.40:1
Frame rate mode                          : Constant
Frame rate                               : 24.000 FPS
Color space                              : YUV
Chroma subsampling                       : 4:2:0
Bit depth                                : 8 bits
Scan type                                : Progressive
Bits/(Pixel*Frame)                       : 0.057
Stream size                              : 1 016 MiB (83%)
Title                                    : Golmaal Again---Pasha@Hon3yHD

Audio
Format                                   : AAC
Format/Info                              : Advanced Audio Codec
Format profile                           : LC
Codec ID                                 : A_AAC
Duration                                 : 2 h 31 min
Bit rate                                 : 192 kb/s
Channel(s)                               : 6 channels
Channel positions                        : Front: L C R, Side: L R, LFE
Sampling rate                            : 48.0 kHz
Frame rate                               : 46.875 FPS (1024 SPF)
Compression mode                         : Lossy
Delay relative to video                  : 9 ms
Stream size                              : 207 MiB (17%)
Title                                    : Hindi---Pasha@Hon3yHD
Language                                 : Hindi
Default                                  : Yes

SubTitle
Format                                   : UTF-8
Codec ID                                 : S_TEXT/UTF8
Codec ID/Info                            : UTF-8 Plain Text
Duration                                 : 2 h 25 min
Bit rate                                 : 64 b/s
Count of elements                        : 2060
Stream size                              : 68.6 KiB (0%)
Title                                    : English---Pasha@Hon3yHD
Language                                 : English
Default                                  : Yes

Chapters Menu
00:00:00.000                             : en:00:00:00.000
00:01:43.625                             : en:00:01:43.625
00:04:31.833                             : en:00:04:31.833
00:08:14.000                             : en:00:08:14.000
00:12:31.417                             : en:00:12:31.417
00:24:43.583                             : en:00:24:43.583
00:37:00.208                             : en:00:37:00.208
00:41:50.000                             : en:00:41:50.000
00:46:28.000                             : en:00:46:28.000
00:58:47.250                             : en:00:58:47.250
01:01:19.750                             : en:01:01:19.750
01:10:08.958                             : en:01:10:08.958
01:17:27.250                             : en:01:17:27.250
01:20:28.958                             : en:01:20:28.958
01:37:59.042                             : en:01:37:59.042
01:40:08.000                             : en:01:40:08.000
01:41:47.208                             : en:01:41:47.208
01:47:48.000                             : en:01:47:48.000
02:18:16.458                             : en:02:18:16.458
02:28:05.833                             : en:02:28:05.833

:ss:







:download:

Quote

File Leeched & Uploaded From




Don't walk as you are king, walk as you don't care who the king is....!!
Never argue with an idiot. They drag you down to their level and then beat you with experience?

Share this topic on FacebookShare this topic on GoogleShare this topic on MySpaceShare this topic on TwitterShare this topic on Yahoo

« Last Edit: December 15, 2017, 08:08:08 PM by Rάήνίјάч1234 »



Don't walk as you are king, walk as you don't care who the king is....!!

Thanks given by:


December 15, 2017, 08:50:54 PM
Reply #1
  • Devoted Member
  • **
  • Thank You: 66
  • Reputation: 13
  • Activity:
    2.4%
  • Country: in
  • Posts: 117
  • Topics: 28
  • Join Date: Jun 2012
  • ShareSpark Member

Tags:
 

Related Topics




Back to top